&title=骤雨の狭間
&artist=Silentroom
&first=0.05
&lv_5=14+
&des=THAC——以彩虹的名义、飞翔。
&inote_5=
(174){4},,,,{8}5,
{16}B4,B5,{4}5x,{2},{8}6,
{16}B4,B5,{4}6x,{2},{8}7,
{16}B4,B5,{4}7x,{2},{8}8,
{16}B4,B5,{4}8x,{2},{8}1,
{16}B4,B5,{4}1x,{2},{8}2,
{16}B4,B5,{4}2x,{2},{8}3,
{16}B4,B5,{4}3x,{2},{8}4,
{16}B4,B5,{4}4x,{2},{8}6pp1[2:7],
{16}B4,B5,{4}6,{2},{8}6,
{16}B4,B5,{4}6,{2},{8}6,
{16}B4,B5,{4}6,{2},{8}6,
{16}B4,B5,{4}6,{2},{8}6,
{16}B4,B5,{4}6,{2},{8}7,
{16}B4,B5,{4}7,{2},{8}8,
{16}B4,B5,{4}8,{2},{8}1,
{16}B4,B5,{4}1,{2}Ch[2:1],
{4},{32}6/Cf,5,4,3,2,1,8,7,6,5,4,3,2,1,8,7,6,5,4,3,2,1,8,7,
{4}6,{32}3/Cf,4,5,6,7,8,1,2,3,4,5,6,7,8,1,2,3,4,5,6,7,8,1,2,
{4}3,{32}8/Cf,7,6,5,4,3,2,1,8,7,6,5,4,3,2,1,8,7,6,5,4,3,2,1,
{4}8,{32}1/Cf,2,3,4,5,6,7,8,1,2,3,4,5,6,7,8,1,2,3,4,5,6,7,8,
{4}1,{32}7/Cf,6,5,4,3,2,1,8,7,6,5,4,3,2,1,8,3/7,4,5,6,7,8,1,2,
{4}3,{32}2/Cf,3,4,5,6,7,8,1,2,3,4,5,6,7,8,1,6/2,5,4,3,2,1,8,7,
{4}6,{32}6/Cf,5,4,3,2,1,8,7,6,5,4,3,2,1,8,7,2/6,3,4,5,6,7,8,1,
{4}2,{32}3/Cf,4,5,6,7,8,1,2,3,4,5,6,7,8,1,2,7/3,6,5,4,3,2,1,8,
{16}7v4[8:1],{8},{16}6,{8}7,5,{16}3v8[8:1],{8},{16}2,{8}3,1,
{16}2v5[8:1],{8},{16}1,{8}2,8,{16}6v1[8:1],5,7,4,{8}6,2,
{16}8v3[8:1],{8},{16}7,{8}8,6,{16}4v1[8:1],{8},{16}3,{8}4,2,
{16}3v8[8:1],{8},{16}2,{8}3,1,{16}5v7[8:1],4,6,3,{8}5,2,
1,1,1/B7,1,2/B5,2,2/C,2,
8/E4,8,8/B2,8,7/B4,7,7/C,7,
{16}6,8,6,8,5,8,5,8,4,8,4,8,{32}4,3,2,1,8,7,6,5,
{2}4h[4:3],3-5[8:1],
{16}6,{8},{16}7,7<4[8:1],{8},{16}4,,,,3,3<5[8:1],{8},{16}3,
6-2[8:1],7,8,1,6,{8},{16}5h[4:1],,,,4,4-6[8:1],{8},{16}3,
3q1[4:1],{8},{16}2,2,{8},{16}2,,,,1,1v6[8:1],{8},{16}1,
6,7,8,1,2v5[8:1],{8},{16}5h[4:1],,,,4,{8}4,3/5,
{16}6/2>4[8:1],{8},{16}5,5-1[8:1],{8},{16}5,,,,2,{8}2,3/1<7[8:1],
{16}2,3,4,5,6-2[8:1],{8},{16}7h[4:1],,,,1,{8}1-5[8:1],8,
{16}7/1,{8},{16}6,6>3[8:1],{8},{16}7,,,,8,8h[16:3],{8},{16}4,
4v1[8:1],3,2,1,4,{8},{16}2h[4:1],,,,3,{8}3-5[8:1],6,
{16}7v5[8:1],{8},{16}6,6,{8},{16}6h[4:1],,,,4,4>1[8:1],{8},{16}4,
8,7,6,5,4/8v2[8:1],{8},{16}7h[4:1],,,,6,6-4[8:1],{8},{16}3,
3-7[8:1],{8},{16}2,2<7[8:1],{8},{16}2,,,,6,{8}6-2[8:1],6,
{16}2-6[8:1],3,4,5,6,{8},{16}2h[4:1],,,,3,{8}3,4/5,
{16}6-4[8:1],{8},{16}7,7>2[8:1],{8},{16}7,,,,3,{8}3-7[8:1],3,
{16}7-3[8:1],6,5,4,3,{8},{16}7h[4:1],,,,6,{8}6,5/7,
{16}6/4>1[8:1],{8},{16}5,4,{8},{16}6h[4:1],,,,5,{8}5v8[8:1],4,
{16}5,4,3,2,{8}1,4/6,{16}E2,E3,E4,E8,E7,E6,E1,C,
{4}E5,{16}B1f/6-2-7-4[4:5],{8},{16}6,,,,3,{8}3,4,
{16}6,5,6,5,6,{8},{16}3,,,,2,{8}2,1,
{16}1-5-2-6[2:3],{8},{16}8,8,{8},{16}7,,,,6,{8}6,4,
{16}3,5,3,5,3,{8},{16}1,,,,8,{8}8,7,
{16}5-3-7-4-1[2:3],{8},{16}6,6,{8},{16}7,,,,8,{8}8,1,
{16}2,5,2,5,2,{8},{16}6,,,,7,{8}7,8,
{16}2-6-1-5-7[2:3],{8},{16}3,3,{8},{16}4,,,,5,{8}5,4,
{16}3,6,3,6,3,{8},{16}2,,,,1,{8}1,8,
5h[4:1],C,{16}3-6[8:1],{8},{16}3,,,,7,{8}7,8/6,
{16}5/1,6/E2,7/E3,8/E4,1/5x,{8},{16}6V82[16:3],,,,5,5,{8},{16}4,
{8}4,C,{16}3-8[8:1],{8},{16}6h[4:1],,,,7,{8}7,{16}6/5,4,
3/7,2/6,1/5,8,7-3[8:1],{8},{16}5h[4:1],,,,4,{8}4,5,
6,C,{16}7<5[8:1],{8},{16}4,,,,3,{8}3,4/5,
{16}6,7,3/8,4,5-1[8:1],{8},{16}5h[4:1],,,,7,7-3[8:1],{8},{16}2,
{4}2,{16}4<8[8:1],{8},{16}1h[4:1],,,,2,{8}2,4/3,
{16}5,6,7,8,1/2-6[8:1],{8},{16}2h[4:1],,,,B5/B4,{4}Cf,
{2}1s5[2:3],{8}5h[16:1],5h[16:1],6h[16:1],6h[16:1],
7h[16:1],7h[16:1],{4}8>4[4:1],{2},{8}4z8[2:1],
6h[8:5],{2},{4}A8f,
,C,,C,
{2}8z4[2:3],{8}4h[16:1],4h[16:1],3h[16:1],3h[16:1],
2h[16:1],2h[16:1],{4}1<5[4:1],{2},{4}4z8[2:3],
{8}8h[16:1],8h[16:1],7h[16:1],7h[16:1],6h[16:1],6h[16:1],
{4}5,{16}B6,{8},{16}B5,,B4,{8}B3,{4}C,
{16}7/5-1[8:1],{8},{16}7,{8}5,6,{16}5/8-4[8:1],{8},{16}6,{8}8,7,
{16}8/3-7[8:1],{8},{16}7,{8}3,6,{16}8-4[8:1],1,2,3,{8}8,3,
{16}3/5-1[8:1],{8},{16}3,{8}5,4,{16}5/6-1[8:1],{8},{16}5,{8}6,3,
{16}2/8-3[8:1],{8},{16}7,{8}8,6,{16}5-1[8:1],6,7,8,{8}5,4,
3/2,2,3/5,3,4/6,4,5/7,5,
6/8,6/8,7/1,2/8,3/1,2/5,7/1,2/6,
{16}4,8,3,7,2,6,1,5,{32}4x/8x,5/1,6/2,3/7,8/4h[8:9],1,2,3,,5,6,7,8,1,2,3-5[32:11],
{4},,,{32}5,6,7,8,1,2,3,4,
{8}5b/Cf,{16}8,1,{8}7,6/2,{16}1,7,2,6,3,5,4,6,
1,8,2,5,4,6,1,8,2,5,4,6,1,2,3/6,4,
5/8,1,2,3,4,5,8,1,2,3,4,5,1,1,{8}2/8,
{16}1/2,8,7,6,5,4,1,8,7,6,5,4,8,8,{8}7/1,
4,{16}3,5,{8}2,1/6,{16}7,8,7,6,{8}7,5/6,
{16}4,5,3,8,1,7,4,5,3,8,1,7,3,3,6,5,
7-4[8:1],4,6,5,{8}7,{16}2-5[8:1],5,3,4,{8}2,{16}6,6,{8}5/7,
{16}1,8,2,7,3,6,2,7,3,6,4,5,{24}3,2,1,8,{12},{8}6x/5x,
{16}4,7,{8}4,3/8,{16}7-3-5[16:3],6,{8}5h[4:1],{4}7,
{16}6,8,7,1,8,2,1,3,7,5,6,4,5,3,4,2,
3pp6[2:1],{8},{16}2,{8},1,{16},8>3[8:1],{4},{8},{16}4,
7,3,6,2,5,1,4,8,8,6,6,4,4,2,2,
{8}1/3,{24}8,7,6,{8}5-8-6[8:3],8,1,2,{4}3h[4:1],
{16}7,8,1,2,3,4,5/1,8,7,6,5,4,3/7,2/6,1/5,4/8,
{2}3h[4:1]/7-3[8:1],{24}4,5,6,7,8,1<4[3:2],{4},{8}5,
4,3,2,{32}B2,B1,B8,B7,B6,B5,B4,B3,E2,E1,E8,E7,E6,E5,E4,E3,
{4}C,8w4[8:1],{2}Cf/8-3-7[8:1]*-5-1[8:1],
{16}2,4,3,7,5,6,1,3,2,8,6,7,{8}1,8/2,
7/4,{24}5,6,5,{8}6,3/8,{24}5,6,5,6,{12},{8}1,2/8,
2/5,{24}4,3,4,{8}3,6/1,{24}4,3,4,3,{12},{24}1/6,7,8,1,2,3,
{4}4h[24:5]/1-6V82[2:1],{24}5,6,7,8-4[8:1],{4},{16},,,{48},{24}6,7,8,
{8}1v6[8:1],{4},{8}2,{16}3q4[2:1],{8},{16}4,{8},5h[4:1],
{4},{8}5,4/6,{16}8,7,6/2,3,{8}4/7,1/5,
{16}8/2,7,6/1,5,{8}4/8,{16}1/7,2,3/8,4,{8}5/1,{16}7,6,5,4,
{6}3/2h[4:3],{24}1,8,{8}7,6,{2}5<8[8:1],
{16}1,1,2,3,{8}3,{16}7,7,6,5,{8}5,{16}8,8,{8}7/1,
{6}7/6h[4:3],{24}8,1,{8}2,3,{2}4>1[8:1],
{16}7,8,7,6,{8}7,{16}3,4,3,2,{8}3,{16}1,8,3/7,6,
{8}5/1,{24}4,3,2,{8}1,7/8,5/6,5/4,{4}4h[2:1]/3<7[24:7],
,{8},{24}8,1,2,{4}3-7[8:1],3/5,
{16}6,4,7,3,8,2,{8}1,{24}7/8h[8:1],6,5,4,{12},{24}2/1h[8:1],3,4,5,{12},{24}6,
7,8,1,2,3,6,7,8,1,2,3,7,6,5,8,7,6,1,8,7,2,1,8,
{2}3x>4-7[2:3],3h[1:1],
{1},8>7-2[2:3],
,{4}4>4V28V64[4:13],
5h[2:1],{2},{8}B6,
{4},{8}B5,,B4,{16},B3,{8},{16}B2,
{8},{16}B1,{1},{4},{2}C,
{16}3qq5<3[2:3],{8},{16}4,{8},5,{16},6,{4},,,{8},{2}C,
{16}6pp4>6[2:3],{8},{16}5,{8},4,{16},3,{4},,,{8},{2}C,
{4}5-1q4-6-1[1:2],{8}4,4,5,6,{4}7h[2:1],
,{12},,{24}7,6,{2}5,
,{24}7,8,{12}1>2>3<4<5<6<7>8>1[12:11],{4},,,{12},{2}Ch[2:1],
{4},{32}2/Cf,3,4,5,6,7,8,1,2,3,4,5,6,7,8,1,6/2,5,4,3,2,1,8,7,
{4}6,{32}7/Cf,6,5,4,3,2,1,8,7,6,5,4,3,2,1,8,3/7,4,5,6,7,8,1,2,
{4}3,{32}3/Cf,4,5,6,7,8,1,2,3,4,5,6,7,8,1,2,7/3,6,5,4,3,2,1,8,
{4}7,{32}6/Cf,5,4,3,2,1,8,7,6,5,4,3,2,1,8,7,2/6,3,4,5,6,7,8,1,
{4}2,{32}2/Cf,3,4,5,6,7,8,1,2/6,5,4,3,2,1,8,7,6/2,3,4,5,6,7,8,1,
{4}2,{32}7/Cf,6,5,4,3,2,1,8,7/3,4,5,6,7,8,1,2,3/7,6,5,4,3,2,1,8,
{4}7,{32}1/Cf,2,3,4,5,6,7,8,1/5,4,3,2,1,8,7,6,5/1,2,3,4,5,6,7,8,
{4}1,{32}8/Cf,7,6,5,4,3,2,1,8/4,5,6,7,8,1,2,3,4/8,7,6,5,4,3,2,1,
{16}8v5[8:1],{8},{16}1,{8}8,2,{16}3v6[8:1],{8},{16}4,{8}3,5,
{16}7v2[8:1],{8},{16}8,{8}7,1,{16}1v6[8:1],2,3,4,{8}1,5,
{16}4v2[8:1],{8},{16}6,{8}4,7,{16}8v6[8:1],{8},{16}2,{8}8,3,
{16}5v3[8:1],{8},{16}7,{8}5,8,{16}1v2[8:1],8,7,6,{8}1,5,
4,4,3/B7,3,2/B6,2,1/B5,1,
8/B4,8,7/B3,7,6/B2,6,5/B1,5,
{16}4,6,4,6,3,7,3,7,2,8,2,8,1w5[8:5],1,1,1,
{4},,,{32}E6/E4,B6/B3,B7/B2,E8/E2,{8},{4}8x/1xh[4:7],
6-4-7-3-8-2-7-3-6[1:1],{1},{4},8,
7h[4:3],1-3-8-4[4:1],{2},{4}5/6-8[8:1],
{16}4,{8},{16}5,,5/6,{8}5/6,{4}4/7,
{2}1s5[2:3],{8}5h[16:1],2h[16:1],7h[16:1],4h[16:1],
8h[16:1],3h[16:1],{4}1>4[4:1],{2},{8}4z8[2:1],
6h[8:5],{2},{4}A8f,
,C,,C,
6h[8:1]/5h[8:3],8-3[8:1],{8}2>5[8:1],2,6<1[8:1],6,
3-7[8:1],3,{4}4h[8:1],{2}8-3[8:1]/4-7[8:1],
{4}4x/8x-4[8:1],4h[16:11],{8}5h[16:1],5h[16:1],6h[16:1],6h[16:1],
{4}4/6,{16}2/5,{8},{16}7/4,,1/8,{8}8/1,{4}7/2,
{32}1/6h[8:3],2,3,4,{8},{4}5h[8:3],{8}4-7[8:1],4,3v8[8:1],3,
6-2[8:1],6,{4}2>5[8:1],,3/7,
{8}6h[8:1],5,4/7,{16}6,5,7,5,6,5,{8}7/4,2/5,
{16}2,3,2,7,6,7,2,3,2,7,6,7,{8}2-7[8:1]*p6[8:1],C,
