&title=Mantle In The Dark
&artist=Ardolf
&first=-0.07
&des=闇靈 -The Magician-
&lv_5=13+
&inote_5=(185)
{8}
,,,,,,,
{4}
3h[4:3],4,4,2h[4:3],3,3,
4h[4:3],5,6,7h[4:2],,6,
2h[4:3],1,1,8h[4:3],7,7,
6h[4:3],5,5,4,5b/4b,1/8,
2pp4>3-1[4:2]/7,4,7,6pp8<7-5[4:2],8,3,
2h[4:1],4h[4:1],5qq4<6[4:2],7h[4:2],,{12},,,
2h[4:2]/6,,,4,,,5,,7x,7xh[4:2],,,5,,,4,,2x,
{4}2x<5[4:2],5,4,4h[4:1],{16}3,2,1,8,7,6,5,4,
{8}
7-3[8:1]/3,,1,1h[8:2],,4,1/4-6v5-7[8:3],,3/4,,2,2-4[8:1],,2,8,7,
2-6[8:1]/6,,8,8h[8:2],,5,8/5-3v4-2[8:3],,6/5,,7,7-5[8:1],,7,1,2,
7>2[8:1]/3,,3,4-1[8:1],,5,6h[4:1],,2<7[8:1],,6,5-8[8:1],,4,3h[4:1],,
7-4[8:1],,3,2-5[8:1],,7,8h[4:1],,3,2,1,8,{16}2,7,2,7,1,8,1,,
{8}
2-6[8:1]/6,,4,4h[8:2],,7,5/8-2v1-3[8:3],,6/8,,7,7-5[8:1],,7,4,6,
7-3[8:1]/3,,5,5h[8:2],,2,4/1-7v8-6[8:3],,3/1,,2,2-4[8:1],,2,5,3,
2-5[8:1]/6,,1,8v3[8:1],,2,1h[4:1],,6-1[8:1],,5,4v7[8:1],,6,5h[4:1],,
3-7[8:1],,2,1-5[8:1],,8,7h[4:1],,4,4,5,5,{16}3,4,3,4,3,4,3,,
{48}2bh[4:1]/4x,5x,6x,,,,{8},,
{48}2bh[4:1]/4x,5x,6x,7x,,,{8},,
{48}2bh[4:4]/4x-1-6-3-8-5>5b[4:5],5x,6x,7x,8x,,{8},
,,,,,,,,{32}A1,D1,A8,D8,A7,D7,A6,D6,{4}A5f,
{48}8bh[4:1]/2x,3x,4x,,,,{8},,
{48}8bh[4:1]/2x,3x,4x,5x,,,{8},,
{48}2x/8b,3x,4x,5x,6x,,{8},
{16}7,,,8,,,1,,,2,,,{12}7x,6,5,{16}1x,2,3,4,{24}8x,7,6,2x,3,4,
{8}1bx-5[8:1],4,3,2-6[8:1],7,8,1p5[8:1],1,
3p7[8:1],,5p1[8:1],,7<4[8:1],,1h[4:1],,
4-8[8:1],1,2,3-7[8:1],6,5,4q8[8:1],4,
2q6[8:1],,8q4qq2b[16:5],,6h[4:1],,,,
1-4[8:1],8,7,6-2[8:1],7,8,1-7<6[8:1],1,
4-2<1[8:1],,7-5>4[8:1],,2-8<7[8:1],,5h[4:1],,
8-5[8:1],1,2,3-7[8:1],2,1,8-4[8:1],8,
6,5,3,2,1,8,7b/2b,,
{16}1bx,8bx,1bx,8bx,1bx,,7,,{8}2h[8:1],5,2h[8:1],7,
{4}2-6[8:1],4-7[8:1]/2,1s5[16:3]/4,1/8,
{8}7h[8:1],4,7h[8:1],2,7h[8:1],4,7h[8:1],2,
{4}7-3[8:1],7/1,{16}2h[8:1]/8h[8:1],,,3h[8:1]/7h[8:1],,,4/6,,
{8}5b-1[8:1],5,4,3,2-6[8:1],2,1,8,7b-3b[8:1],7,6,5,4-8b[8:1],4,3,2,
{16}1,7,1,7,2,6,2,6,3,5,3,5,4,6,4,6,
5,4,3,2,5,6,7,8,E5,E4,E3,E2,E1,E8,E7,E6,
{8}Cf/E5,,,5,,,4,,{64}3,4,{32},{16},{8},,,,,6,,
{64}7,5,{32},{16},{8},,4,,,3,,{64}2,4,{32},{16},{8},,,,,6,,
{64}7h[8:6],8h[64:23],{32},{16},{8},,,,,1,,
{64}2h[8:6],1h[64:23],{32},{16},{8},,,,,8,,
{64}5h[8:6],4h[64:23],{32},{16},{8},,,,,4,,
{4}5,4/5,3/6,2/7,
{4}1/8h[4:2],2,3,{8}B4,B6,D5,D6,B5,,8,,,,
{4}1/7h[4:2],2,3,{8}A4,A6,B4,B6,E3,E8,C,,,,
{4}8/1h[4:2],7,6,{8}B5,B3,D5,D4,B4,,1,,,,
{4}8/2h[4:2],7,6,{8}A5,A3,B5,B3,E7,E2,C,,,,
{8}
1bh[4:1]/8bh[4:1],,,1b-7v6V42[8:8]/8b,,,5,,5,,7,,8,,8,,
1bh[4:1]/8bh[4:1],,,1b/8b,,,{16},,2,1,
3,,3/8,,3/7,,3/6,,4h[8:1]/5h[8:1],,,2h[8:1]/1h[8:1],,,3b/8b,,
4,6,5,6,5,6,5,6,3,6,5,6,5,6,5,6,
7,6,5,6,5,6,5,6,8,6,5,6,5,6,5,6,
{12}4,5,5,3,6,6,2,7,7,1,8,8,
{32}
1x,8x,1x,8x,1x,8x,1x,8x,1x,8x,1x,8x,1x,8x,1x,8x,
{16}1x,,,{32}2bx,3,4,5,{16},{32}7bx,6,5,4,
{1}1bh[1:1],
{16}5,,6,5,7,,3,4,2,5,1,6,8,7,1,8,
{8}1-5[8:1],,1>4[8:1]/7h[4:1],,1,{16}7,6,{8}5/2-6[8:1],,2>5[8:1]/7h[4:1],,2,8,3-7[8:1]/7,,3/5-8[8:1],,2z6[16:5]/5,2,7h[4:2],,,,{12}4xpp5pp6[4:2],3x,2x,
{28}A4/1x,,,,,,,A5/2,,,,,,,{4}A6/3qq2qq1[4:2],
{28}A3/7,,,,,,,A2/6,,,,,,,{4}A1/5,
{12}
8h[12:2]/3,,5,7,3,5,4,6,2,
4h[12:3],,,3,1,1,2,8,8,
{8}1-5[8:1],,1>4[8:1]/7h[4:1],,1,{16}7,6,{8}5/2-6[8:1],,2>5[8:1]/7h[4:1],,2,7,
{12}6,4,7,1,4,2,5v4<7b[16:6],3,6h[12:7],
,,,,,,8x-5[8:1],1x,2x,
3x<6[8:1]/8,,,7h[4:1]/3,,,{8}5-8[8:1],3,
{12}2<7[8:1]/5,,,6h[4:1]/2,,,1-5[8:1],,,
1/7b-2[8:1],,,7/3b-7[8:1],,,3/8bw4[8:1],,,8b,,,{16}7,8,6,1,5,2,4,,
{8}4x-1[8:1]/5x-8[8:1],4/5,4b/5b,,{16}2,,7,6,{8}5-1[8:1]/1,,5>2[8:1]/3,,7/5,6,
{12}3,5,2,8,5,7,4v5V31b[16:6],6,3h[12:7],
{4},,{12}8,8,4,
{28}A7,B7,C,B4,E5,A5,D6,A6/2x,B6,C,B3,E4,A4,D5,{4}1/A5,
{28}A2/6,B2,C,B7,E8,A8,D1,A1/5x,B1,C,B6,E7,A7,D8,{4}4x/A8,
{12}
2h[12:2]/7,,4,2,6,4,5,3,7,
5h[12:3],,,6,8,8,7,1,1,
{8}8-4[8:1],,8<5[8:1]/2h[4:1],,8,{16}2,3,{8}4/7-3[8:1],,7<4[8:1]/2h[4:1],,7,2,
{12}6,4,7,1,4,2,5qq4V68b[16:6],3,6h[12:7],
,,,,,,{8}1,5,
{12}2b,2,2,4b,4,4,{48}A1f,D1,A8,D8,A7,D7,{8}A6,
{12}7bx,7,7,5b,5,5,{48}A8f,D1,A1,D2,A2,D3,{8}A3,
{12}1/2,,7/5,,3/4,,1-5[8:1]/8-4[8:1],,,
{32}D8/D2/1b/8b,E8/E2,Cf,E5/D5,,,,,{12},,,{16}4x,5x,4x,5x,3,6,2,7,
{4}1b>4[8:1],1<6[8:1]/7,1-5[8:1]/3,1/5-1[8:1],8-6[8:1]*-4[8:1],8,{16}7,5,,2,4,,4/5,,
{8}7-4[8:1]/2-5[8:1],6/3,7b/2b-8[8:1],,2-4[8:1]/6v1[8:1],,2/6,,
{16}7,8,7,8,6,,7/2,6/3,4-8[8:1]/5-8[8:1],,3/6,,4/5,,,,
{4}2-4[8:1]/6-8[8:1],2v5[8:1]/6,7-1[8:1]/2,7-5[8:1]/3v8[8:1],7>2[8:1]/3,7/4v7[8:1]*p8[8:1],4b,{16}1,2,3,4,{12}8b/5,,7/4,,3/5,,1b/4,,2/5,,6/4,,
1/8,1/8,1/8,1/8,1x/8x,1x/8x,{16}1x/8x,,,2/4x,,,7/5x,,
{32}8bh[4:9]/2s6-8z4-2b[4:8],B2,Cf,B6,A6,
