&title=ノリノリ穴あけフリーク
&artist=Nintendo Sound Team「PAPER MARIO:THE ORIGAMI KING」
&first=0.62
&des=桂花君「MMFC3&娱乐赛」
&lv_5=13+
&lv_6=13+
&inote_5=(138)
{4}7-3[8:1],8-4[8:1],1-5[8:1],2b,
{16}7-4[8:1],8,6,1,7,,8,,2>5[8:1],,1,,28,,,,
{16}6<1[8:1],,5,,64,,,,3V17[16:3],,4,,35,,,,
{16}4-7[8:1],3,3,,4,,2,,8,,71,,62,,53,,
{16}4,,6,6,3,,5,,2h[16:1],5h[16:1],3h[16:1],6h[16:1],4,,4,,
{8}8,8,7/3h[96:1],7,6/2h[96:1],6,{16}5,1,6,2,
{16}7v4[8:1],,3,3,7,,,,2v5[8:1],,6,6,2,,,,
{16}6,5,7,,3,4,2,,6h[8:1],,5h[8:1],,4h[8:1],,3h[8:1],,
{16}6-1[8:1],5,7,4,6,,,,3>8[8:1],4,2,5,3,,7b,,
{8}7b,6h[96:1],6h[96:1]/2,6h[96:1],7h[96:1]/3,7h[96:1],8h[96:1]/4,8h[96:1],
{8}8q4[8:1],7,68,,1p5[8:1],2,31,,
{16}7,5,6,,2,4,3,,7h[8:1],,5h[8:1],,4h[8:1],,2h[8:1],,
{16}6-1[8:1],6,5,5,6,,,,3-8[8:1],3,4,4,3,,,,
{8}7<3[8:2],,7,1s5[8:2],,1,,6,6q8[16:5],,,2,2q4[16:5],,,6,
{8}6<5[2:1]*q5[2:1],,,,,,,7,
{16}7>2[4:1],,,,,,,3<6[8:1],3,,,,,,,,
{16}8qq5[8:3],,,,,,2,3,4>1[8:1],,,,7,,6,,
{8}5q7[16:5],,,1,1q3[16:5],,,7,
{8}7<8[2:1]*p8[2:1],,,,,,,,
{16}72,,72,,,7,5,,13,,24,,35,,46,,
{8}7-4[8:1]/5,8,7b/4,3,2-5[8:1]/4,1,2b/5,6,
{8}7>2[8:1],7,3<6[8:1],3,7-3[8:1],7,1b,1,
{8}2-5[8:1]/4,1,2b/5,6,7-4[8:1]/5,8,7b/4,3,
{8}2>4[16:1],6<8[16:1],2q4[4:1],6,,8b,8b,,
{8}7-5[16:1]/4-8[8:1],58,7b/4,,2-4[16:1]/5-1[8:1],41,2b/5,,
{8}8-3[8:1],4-1[8:1],8<2[4:1],4,8,1,1b,,
{8}6-8[16:1]/1-5[8:1],85,6b/1,,3-1[16:1]/8-4[8:1],14,3b/8,,
{8}8<6[16:1],8,2>4[16:1],2,8z4[16:3],8,2b,,
{16}3,4,3,,6,5,6,,4,5,3,6,4,,3,3,
{16}6,5,7,,3,4,2,,6,5,6,7,6,,5,,
{16}4,4,6,,5,5,3,,1,,2,,3,,4,5,
{16}4,3,4,,6,5,6,,4,4,5,5,3,,6,,
{16}2,,28,,7,7,1,,6,,5,,43,,2,,
{16}1,8,1,,7,5,,2,4,,7,5,6,,5,,
{16}3,,18,,2,2,4,,6,4,6,4,64,,3,,
{16}1,2,8,7,2,3,7,6,3,4,6,5,2,,7,,
{8}7q2[4:1],,7,4>8[4:1],,4,6,6,
{8}7-5[16:1],8-4[8:1],7,8,1-5[8:1],2-4[16:1],1<3[2:1],2p8[8:3],
{8}1,,,,,,,{16}5,5,
{16}4,5,3,6,2,7,1,8h[8:1],,{24},7,6,5,{96},,{16}2,6,3,5,
{8}2p7[4:1],,2,5<1[4:1],,5,3,3,
{8}2-4[16:1],1-5[8:1],2,1,8-4[8:1],7-5[16:1],8>6[2:1],7q1[8:3],
{8}8,,,,,,8-4[8:1],,
{16}8b,,,,,,,,45,,3,,45,,6,,
{16}7-4[8:1],8,6,1,7,,1,1,2-5[8:1],,1,,28,,,,
{16}6<8[16:1]/2,,5,,{32}26,3,4,,,,,,,,,,{16}8,8,1,7,2,,
{8}6-1[8:1]/3,3,46,4,5-2[8:1]/7,7,65,6,
{16}5,,3,3,4,,6,,2h[16:1],7h[16:1],4h[16:1],5h[16:1],2,,2,,
{8}1/7-5[16:1],1,7-3[8:1]/2,2,1/7,1,{16}2,8,1,7,
{16}2>5[8:1],,1,1,28,,,,7<4[8:1],,8,8,71,,,,
{16}2,1,3,,7,8,6,,1h[8:1],,3h[8:1],,5h[8:1],,7h[8:1],,
{16}8-4[8:1],7,1,6,8,,,,1-5[8:1],2,8,3,1,,2b,,
{8}7/2b-4[16:1],7,2-6[8:1]/8,8,7/2-4[16:1],7,82,8,
{16}7<4[8:1],,8,,71,,,,2>5[8:1],,1,,28,,,,
{16}7,8,6,,2,1,3,,8h[8:1],,6h[8:1],,4h[8:1],,2h[8:1],,
{16}1p5[8:1],2,8,3,1,,,,8q4[8:1],7,1,6,8,,,,
{8}6pp1[8:3],,6,4>7[4:1],,4,,6,
{8}5q7[16:5],,,1,1q3[16:5],,,5,
{8}5pp4[2:1]*<4[2:1],,,,,,,{16},8,
{16}8<5[8:1],,,,,,,4,4>1[8:1],,,,,,,,
{16}7pp4[8:3],,,,,,4,3,2>6[4:1],,,,2,,8,,
{8}8p6[16:5],,,4,4p2[16:5],,,8,
{8}8qq1[2:1]*<1[2:1],,,,,,,,
{16}3/6h[8:1],,5,5h[8:1],,4h[8:1],,3,25,,36,,47,,58,,
{32}7/4h[4:1],,,,8,,,,7b,6,5,4,,,,,2/5h[4:1],,,,1,,,,2b,3,4,5,,,,,
{8}7-3[8:1],1-5[8:1],7qq4[4:1],1,7,2,2b,,
{32}26,,,,17,,,,2b/6,3,4,5,,,,,73,,,,28,,,,7b/3,6,5,4,,,,,
{8}1-4[8:1],1-6[8:1],1pp5[4:1],,,7b,7b,,
{32}7/3h[4:1],,,,8,,,,7b,26,15,84,,,,,2/6h[4:1],,,,1,,,,2b,73,84,15,,,,,
{8}8-4[8:1],3-1[16:1],8<2[4:1],3,8,1,1b,,
{32}7/3,,,,84,,,,7b/3b,26,15,84,,,,,2/6,,,,15,,,,2b/6b,73,84,15,,,,,
{8}5-2[8:1],1-6[8:1],5qq8[4:1],1,5,7b,7b,,
{16}3,4,2,,8,,6,5,7,,1,,2,,3,5,
{16}4,6,5,,7,7,,1,,3,5,,6,,4,,
{16}3,4,3,2,3,,6,5,6,,3,,4,,7,1,
{16}8,2,,3,,5,5,,3,6,4,5,2,7,4,5,
{16}2,3,45,,6,,4,5,4,,7,,18,,5,4,
{16}6,3,5,,7,7,,1,,2,2,,5,,4,,
{16}7,6,53,2,1,,3,4,2,,8,,17,,2,6,
{16}3,5,,1,,7,7,,3,6,4,5,4,,3,,
{8}1s5[4:1],,1,6<3[4:1],,6,5,5,
{8}5-1[8:1],7-4[8:1],5,,2-5[8:1],4-8[32:3],2>1[2:1],4p1[8:3],
{8},,,,,,,{16}3,3,
{16}5,4,6,3,7,2,8,1h[8:1],,{24},2,3,4,{96},,{16}7,7,3,5,
{8}2z6[4:1],,2,5<1[4:1],,5,3,3,
{8}2-5[8:1],4-8[8:1],2,,5-1[8:1],7-4[32:3],5>6[2:1],7p6[8:3],
{8},,,,,,1w5[8:1],,
{8}1b,,,,45,2,54,7,1b,E
&inote_6=(138)
{4}6<1[8:1],5-8[8:1],3-7[8:1],1b,
{16}6,8,6,8,6,,45,,12,,76,,3-7[8:1]/4,,,,
{8}1,5,4<7[8:1],,8b,{16}1,2,3,4,5,,
{16}7,6,7,,12,,45,,78,,34,,76,,12,,
{16}23,,1-5[8:1],8,1,,1,,6,7,8,1,2,,1b,,
{8}56,12,56,12,56,12,{16}7,8,7,8,
{8}7-3[8:1],5,1-5[8:1],,7,2,8,,
{16}6,5,6,,3,4,3,,78,,12,,34,,56,,
{16}7-4[8:1],8,7-3[8:1],,,,,,8,,1b,,1b,,,,
{16}34,,78,,34,,78,,34,,78,,2,3,2,3,
{8}2<7[8:1],7,5-1[8:1],,2,6,4,,
{16}2,3,2,,7,6,7,,18,,23,,45,,67,,
{16}1,8,1,2,1-5[8:1],,,,5,6,7,8,1<6[8:1],,4,3,
{8}2-7[8:1],,6,4-8[8:1],,1,3,5,
{8}7>2[4:1],,,3,5-1[4:1],,,7,
{8}4<7[2:1],,,,,,,8-3[8:1],
{16}8-5[8:1],,,,,,,4-1[8:1],4-8[8:1],,,,,,,,
{8}2>5[8:1],,6,8-4[8:1],,7,1,3,
{16}8>3[4:1],,,,,,4,5,6>3[4:1],,,,,,7,,
{8}7-3[2:1],,,,,,,,
{16}24,,74,,,18,18,,23,,45,,67,,18,,
{8}2/3-8[8:1],5,4-1[8:1],,7>2[8:1],2,6-1[8:1],,
{8}5,5-8[8:1],4,2-6[8:1],7,1-5[8:1],8b,,
{8}4>1[8:1],5,6-1[8:1],,7<4[8:1],5,2-6[8:1],,
{8}8-4[8:1],7-3[8:1],,,1<6[4:1],2b,2b,,
{8}3-8[8:1],5,4-1[8:1],,4-7[8:1],6,8-4[8:1],,
{8}7>2[8:1],6,5-2[8:1],5,8-4[8:1],7-2[8:1],8b,,
{8}3-6[8:1],4,5<8[8:1],,1-5[8:1],2,3-8[8:1],,
{8}7-2[8:1],6,5-1[8:1],4,3<6[8:1],4,2-5[8:1],,
{16}2,1,8h[8:1],,7,6,5h[8:1],,4,3,2,1,8h[8:1],,1,3,
{16}1,3,1h[8:1],,7,6,7,,1,8,1,8,1,,54,,
{16}2,3,2,,8,7,8,,65,,43,,12,,8,7,
{16}6,5,4h[8:1],,8,1,2,,7,5,4,6,3,,45,,
{16}23,,18,,7,7,6,,65,,54,,43,,12,,
{16}8,7,8,,34,34,,65,65,,7,2,7,,18,,
{16}54,,18,,2,2,3,,7,6,7,6,76,,23,,
{16}7,8,7,8,1,8,1,8,1,2,1,2,1,,27,,
{16}4-7[4:1],,,,,,2,3,4>1[8:1],,7,,6,,5,,3,4,2,6,3,7,5,3,6
,3,6,3,3>8[2:1],,
{16}2,,3b,,,,,,,,,,,,,,4,3,5,5,4,6,3,4,5,6h[8:1],,{24}1,2,3,4,{96},,{16}5,6,3,4,
{16}5-2[4:1],,,,,,7,6,5<8[8:1],,2,,3,,4,,2,56,7,8,3,6,3,6,8,6,4,3,4,7,3,5,4-7[4:1]
/3-8[4:1],
{16},,,,,,,,,,,,,,{32}4,5,
{8}4,,23,18,76,45,23,76,
{16}3,4,3,4,3,,34,,56,,78,,1/2h[4:1],,,,{32}1,8,7,6,5,4,3,2,{16}1b,,,,,,6,5,4,3,2,,
{16}67,67,67,,18,,23,,65,,21,,34,,12,,8-4[8:1],,2,1,8,,6,,5,6,7,8,1,,1b,,
{16}46,,24,,46,,24,,46,,24,,6,4,4,2,7>2[8:1],,2,,4-1[8:1],,,,6,,4,,3-6[8:1],,,,
{16}1,2,3,,8,7,6,,18,,23,,45,,67,,1,2,3,4,5-1[8:1],,,,7,6,5,4,3,,8b,,
{16}8/1b,,23,,18,,23,,18,,23,,8,1,3,2,8-3[8:1],,7,,5<8[8:1],,,,1,,3,,5-1[8:1],,,,
{16}7,6,5,,2,3,4,,75,,18,,24,,18,,7,6,5,4,3-7[8:1],,,,1,2,3,4,{32}5,4,3,2,1,8,7,6,
{16}5>2[4:1],,,,,,7,6,5-8[4:1],,1,,7,,2,,3>8[4:1],,,,,,6,5,4-7[4:1],,,,,,1>4[4:5],,1b,,,,,,,,,,,,,,,7,7-2[8:1],,,,,,,3,3-6[8:1],,,,,,,,
{16}4-7[4:1],,,,,,2,3,4>1[4:1],,8,,2,,7,,6-2[4:1],,,,,,3,4,5-2[4:1],,,,,,8-3[4:2],,8b,,,,,,,,,,,,,,,,
{16}67,,18,18,,23,23,,54,,67,,81,,23,,
{8}5-8[8:1]/4,6,7>2[8:1],,2-5[8:1]/7,3,8-4[8:1],,1<6[8:1],2,3-8[8:1],2,5-1[8:1],6,4b,,
{8}2-5[8:1],3,8-3[8:1],,1-6[8:1],7,2>5[8:1],,6-1[8:1],7,5-8[8:1],2>5[8:1],,,1b,,
{8}1-5[8:1],8,2<7[8:1],,3-8[8:1],5,6-2[8:1],,5>2[8:1],3,8-4[8:1],1,2-7[8:1],8,2b,,
{8}6-1[8:1],8,5-8[8:1],,3<6[8:1],1,2-5[8:1],,8-5[8:1],7,6-3[8:1],4,1<6[8:1],2,1b,,
{16}2,3,4h[8:1],,8,,7,6,5h[8:1],,4,,23,,1,8,
{16}7,6,5h[8:1],,4,4,,18,,34,56,,23,,76,,
{16}8,7,6,5,4h[8:1],,1,8,7h[8:1],,1,,23,,4,5,
{16}6,5,,34,,5,5,,2,1,8,7,8,1,2,3,
{16}2,3,45,,6,,1,2,3h[8:1],,7,,76,,3,4,
{16}5,6,7h[8:1],,8,8,,12,,23,23,,54,,46,,
{16}1,2,3,4,5h[8:1],,6,7,8h[8:1],,2,,17,,2,3,
{16}4,5h[8:1],,1,,7,7,,2,3,4,5,6,,78,,
{16}1<6[8:1],,,,6,,4,3,2-7[8:1],,6,,5,,4,,
{16}3,4,3,4,3,2,3,2,1,2,1,2,3-7[2:1],,3,,
{16}3b,,,,,,,,,,,,,,4,3,5,5,4,6,3,4,5,6h[8:1],,{24}1,2,3,4,{96},,{16}5,6,3,4,
{16}8>3[8:1],,,,3,,5,6,7-2[8:1],,3,,4,,5,,
{16}6,5,6,5,6,7,6,7,8,7,8,7,6-2[2:1],,6,,6b,,,,,,,,,,,,
{32}1,2,3,4,5,6,7,8b,{16},,,,45,,23,,18,,67,,45,,23,,1b/8b,,E
