&title=Red Eyes
&artist=Cosmograph
&first=0
&des=ネギラメン
&lv_5=13
&inote_5=(153)
{1},{16}5,{4}4<3[16:5],,{16},5-2[10:1],6,7,8-5[10:1]*-3[10:1],5,,,8,,,,6,,
5,,7h[8:1]/4h[8:1],,,6h[8:1]/3h[8:1],,,5h[8:1]/2h[8:1],,,4h[8:1]/1h[8:1],,,
23,23,,,5pp1[16:6]*qq4[16:4],,4,,5,,,,,,2,3,4,,1,2,8,1,7,8,6,4,5,3,
1<6[16:1],,,1>4[16:1],,,1p5[16:1],,,1q5[16:1],,,1,,6h[8:1],,
3,3,7h[8:1],,
(150)4,8h[8:1],,5,(120)8,6,4,2,,,,,1b,,,{48},2b,,
(153){16},,,3bp7[8:1]*>8[8:1],5,4,6,,,,,
4h[8:1]/6h[8:1],,,46,,,73,,3,4,{8}3,2-5[10:1]/5,1,26,6h[4:1],
3h[8:1],{16},5,4,5,3,5,2,5,1,6,2,7,3,8,4,6,2,,
5h[8:1]/3h[8:1],,,53,,,26,,6,5,{8}6,7-4[10:1]/4,8,73,3h[4:1],
{16}6h[8:1],,,2h[8:1]/5h[8:1],,,3h[8:1]/6h[8:1],,,
4h[8:1]/7h[8:1],,,5p1[8:1]/8p4[8:1],,,,5b/8b,,,,
2h[8:1]/6h[8:1],,,17,,,26,,3,4,{8}3,2/1-5[10:1],47,18,8h[4:1],
3h[8:1],{16},2,1,2,8,2,7,2,6,3,5,4,6,3,7,1,5,,
7h[8:1]/3h[8:1],,,82,,,73,,6,5,{8}6,7/8-4[10:1],52,81,1h[4:1],
{16}5h[8:1],,,2h[8:1]/6h[8:1],,,3h[8:1]/7h[8:1],,,4h[8:1]/8h[8:1],,,
15,48,37,2,1-5[10:1]/5,6,27,3,4/1b,,,
,7,8,6,1h[16:7],,,3,,5,,7,,28,,2,4,3,5,4,,
3,5,4,6,5-8[10:1]*-2[10:1],,73,,5b,,,
,2,1,3,8h[16:7],,,6,,4,,2,,1b-5[10:1]/4b-8[10:1],,,,1b/4b,,,7b/3b,,
2,1,,4,5,3,6,1-5[10:1],,,,1/6>3[10:1],,7,7,,,8,8,2,1,3,5,
1-5[10:1],,8,,7>5[4:1]/1,,,73,,,,,2<7[10:1],,,
{16}26,,,
{8}4,
{16}84,,15,,
{16}62,,73,,84,,51,,6bp2[16:5]/2bp6[16:5],6b/2b,
{4},{16},,,,,,
7,2,5,4,
8p4[10:1],,,,3^6[10:1]/8,,,2b,,
1,2,3,7,5,8,5,1>4[10:1],,,,6V42[8:1]/1,,,7b,,8,7,6,
2,4,1,4,8V24[10:1]/3V57[10:1],,,,83,,,1b,,4,3,2,7,4,5,1h[16:3],
6h[8:1],,,8h[8:1]/3h[8:1],,,1h[8:1]/5h[8:1],,,7h[8:1]/3h[8:1],,,
4,6,3,7,1q5[10:1],,,,1/6^3[10:1],,,7b,,8,7,6,2-5[10:1],4,1,6,2b,,8,,6/4,,
7,6h[16:3]/8,,,4,,3,4/2h[16:2],,
{16}5bV74[156#16:3],,,
{16}4-8[64:7],,
(153)8-3[8:1],,3<7[16:3],,1,,8,,1,,2,,
8h[8:1]/3,,5,,2h[8:1]/6,,4,,7p3[10:1]/3p7[10:1],,48,,,,,,
{16}1/2-8[10:1],,4,5,2,,6,,7-3[10:1]/1,,6,4,7,,2,,
1/8,,7,,64,,3,5,1h[8:1],,4,2,5,3,6,4,
8bqq6[10:1]*pp2[10:1],,,,8,,,,1h[16:2],,6,2h[16:2],,7,3h[8:1],,8,
7,6,5,84,1,2,3,6>1[6:1]/4,75,,,8b,,,,7-4[10:1]/8,,1,,
7/3<7[8:1],,,1/3,,2,,4,4>1[10:1]/8<5[10:1],,,,4b/8b,,,,
78,,5,4/6h[16:3],,,8,,17,2h[8:1]/6,,
(109)
{8}8b-4[200#10:1],
(150)8,
(145)1>3[12:1],5q1[10:1],1q5[10:1],5<7[12:1],4,2,
(153)
{16}1b,{16}8,,2,7,2b,,3,6,(135){32}3b,,5,4,6,,2q7[6:1],,(145){16}8,3h[8:2],,
(153)
2b,,,,1,,1,,1,5<8[8:1],1,5,1,,1,,1,,1,8,1,7,1,,1,8,1,7,1,
6qq3[2:1],1,,1b,,1,,1,,1,,1,,1,,
1,{32}5,2,{16}4,3h[16:3],8h[8:1],,,2h[8:1]/6h[8:1],,,7h[8:1]/4h[8:1],,,
1h[8:1]/5h[8:1],,,27,,{24}6,5,4,{16}2qq1[8:2],,,,
6/2b,,6,,6,,6,,6,1,6,1,6,,{24}6/2,3,4,{16}56,,6,5,6,4,6,,6,5,6,4,6,3>8[10:1],6,,
6b,,6,,6,1,6,2,6,3,6,4,{32}7,,5,6,{16}5,,
78,1h[8:1]/6h[8:1],,,,,12,3h[8:1]/8h[8:1],,,18,27,3b-7[10:1]/6b-4[10:1],,,,
3/6,,,,8,1,2,3h[16:7]/4,,,2,,8,,6,,24,,2,4,3,5,4,,
3,5,4,6,5<8[10:1],,4,,5b/2h[4:1],,,,1,8,7,6h[16:7]/5,,,7,,1,,3,,
8b<5[10:1]/5b>2[10:1],,,,5b/8b,,,1b/4b,,7,8,,
5,4,6,3,8-4[10:1],,,,8/3<6[10:1],,2,2,,,1,1,7,8,6,4,
8-4[10:1],,1,,2<4[4:1]/8,,,26,,,,,7>2[10:1],,,
{16}73,,,
{8}5,
{16}51,,84,,
{16}37,,26,,15,,48,,3bq7[16:7]/7,3/7bq3[16:6],,,,,,,,,,,,,,,
{16}3h[8:6],,,,4,,,5h[16:5],,,,,,,,,
7h[8:6],,,,5,,,4h[16:5],,,,,,,,,
1h[16:7],,,,6,,,,{24}
3,4,5,{16}6,4,5,3,7,1,
6b-1[16:1]/2b,,,5b/6b,,,3b-8[16:1],,,3b/7b,,,
15,62,73,84,
{16}
1bp5[10:1]/5bp1[10:1],,,,15,,,{32}2,3,4,,
{16}6,6,5,7,1,6,3,4bp8[10:1]/8bp4[10:1],,,,84,,,{32}1,2,3,,{16}7,7,1,
6,3,8,4,3bp7[10:1]/7bp3[10:1],,,,73,,,{32}8,1,2,,{16}5,5,4,7,3,6,1,
7h[8:1]/2h[8:1],,,8h[8:1]/3h[8:1],,,6h[8:1]/2h[8:1],,,8h[8:1]/4h[8:1],,,
84,73,62,51,
(155){16}8q4[10:1]/4q8[10:1],,,,84,,,{32}7,6,5,,
{16}3,3,4,2-5[10:1],8,3,6,2b,,8,,7/4,,
34,2h[16:3]/5,,,8,,71,2/6h[16:2],,
5b-2[200#8:1],,,56,,8-4[10:1],,7-3[10:1],,8>4[10:1],,7,,8,,7,,
5h[16:1]/8h[16:1],,3h[16:1]/4h[16:1],,1h[16:1]/6h[16:1],,3h[16:1]/7h[16:1],,5h[16:1]/2h[16:1],,7h[8:1]/4,,{48}8,1,2,3,4,,,,,,,,
(153)
{16}8/7-1[10:1],,6,4,7,,3,,2-6[10:1],8,3,5,2,,8,,
75,,45,,24,,6,4,8h[8:1],,5,7,4,6,3,5,1-5[10:1],,2,8,1,,
6,,8/7h[16:2],,5,6h[16:2],,4,5,3,
{24}8,1,8,1,8,1,{16}7,5,6,6,3<8[6:1],2/4,,,1b,,,,
1/2-5[10:1],,8,,6>1[6:1]/2,,,{32}8/6,,,,1,8,7,6,{16}5,
8w4[10:1],6,1,7,8b,,,,1/2,,5/3,7h[16:3]/4,,,8,,1/6,3/8h[8:1],,
{16}1bV38[156#16:3],,,
{16}8-4[64:7],,
(153)4-7[8:1],,7>3[16:3],,5,,4,,5,,7,,
{32}31,,31,,,,5,,4,,,,86,,86,,,,{16}4,5,3q5[16:31],27,27,,
{32}2,3,4,5,6,7,8,1,2,3,4,5,6,7,8,1,2,3,4,5,6,7,8,1,2,3,4,5,6,7,8,1,2,3,
{4}4b>6[4:2],,,{16},,,(125){32}64,37,28,
