&title=Monochrome Princess
&artist=polysha
&first=0.034
&des=moo
&lv_5=14
&inote_5=(160)
{1},
{2}6b/2bpp6[8:5],{16}7,,,7,,,8,,
{2}1V74[8:5],{16}5,,,5,,,{8}3,
{4}2-4[8:1],4,7-5[8:1],5,
{4}2-4[8:1],3,7-5[8:1],6,
{8}1h[8:1],4,8h[8:1],5,2h[8:1],4,7h[8:1],5,
{8}3h[8:1],4,6h[8:1],5,2h[8:1],3,7h[8:1],6,
{16}2h[8:1],,4,3,5,,4,6,3,,5,3,6,,4,5,
{4}3V51[3:1]/6V48[3:1],,,{16}1,8,1,8,
{4}2b/7bV53[4:1],3V17[4:1],7V53[4:1],3V17[4:1],
{4}7V53[4:1],3V16[4:1],7,3,
{4}2V46[4:1],6V82[4:1],2V46[4:1],6V82[4:1],
{4}2V47[4:1],7V51[4:1],1-6[8:1]*-4[8:1],,
{4}81,{16}2,1,2,1,{4}37,{16}7,8,7,8,
{4}62,{16}2,1,2,1,{4}37,{16}7,8,7,8,
{16}62,,1,4,,7,5,,18,,2,5,,7,3,,
{4}5h[8:1]/4h[8:1],6h[8:1]/3h[8:1],7h[8:1]/2h[8:1],8h[8:1]/1h[8:1],
{24}8b/1b,72,63,54,,,{16}2h[8:1],,7,3,1h[8:1],,3,5,2h[8:1],,6,4,
{16}1h[8:1],,4,6,2h[8:1],,7,5,1h[8:1],,5,7,{4}2h[8:1],
{4}4/2h[8:1],{16}6-4[12:1],3,,3h[16:3],,,,,2-8[12:1],3,,3h[16:3],
{16},,,,6b-4[12:1],7,,7h[8:1],,,1,,{4}4b<7[8:1]/1b>4[8:1],
{16},,,,8h[8:1],,5,6,1h[8:1],,6,4,8h[8:1],,3,5,
{16}1h[8:1],,5,3,7h[8:1],,2,5,8h[8:1],,4,2,{4}7h[8:1],
{4}5/7h[8:1],{16}3-5[12:1],6,,6h[16:3],,,,,7-1[12:1],6,,6h[16:3],
{16},,,,2,1,,1,3,5,2,8,1,7,4,6,
{4}3b-5[12:1],3/6-2[8:1],3V51[16:3],{8}8,8,
{4}7-3[8:1],1/7-1[12:1],7/2V48[16:3],{8}1,1,
{16}7h[8:1],,1,,2-5[8:1],1,,1,2,,8,,7-4[8:1],8,,8,
{16}7,,1,,2-5[8:1],1,,1,2,,8,,{4}8b<5[8:1]/5b>2[8:1],
{4},5/1-5[8:1],1/6V48[16:3],{8}2,2,
{4}1-5[8:1],1/7-3[8:1],7<4[8:1]/8>3[8:1],,
{16}7b,4,6,4,8,3,8,2,7b,4,6,4,1,3,1,2,
{16}7b,1,6,4,5,3,8,2,7,1,6,4,5,3,1,2,
{4}7b-4[8:1],{8}8,1-6[8:1],,6,{4}8-4[8:1],
{8}4,1-6[8:1],,6,8V25[16:3],,5,,
{4}1-6[8:1],{8}6,8-3[8:1],,3,{4}1-5[8:1],
{8}5,8-3[8:1],,3,1V74[16:3],,4,,
{4}8V26[16:3],{8}4,3V52[16:3],,5,{4}8V26[16:3],
{8}5,3V14[4:1],,4-8[8:1],5,,7,,
{4}1V73[16:3],{8}4,6V47[16:3],,4,{4}1V73[16:3],
{8}4,6V85[4:1],,5-1[8:1],4V25[16:4],3,,,
{4}1b,{16}3/7h[8:1],,2,1,3h[8:1],,1,2,7h[8:1],,2,1,
{16}3h[8:1],,1,2,7h[8:1],,2,1,3h[8:1],,1,2,8,1,7,8,
{16}6h[8:1],,8,7,2h[8:1],,7,8,6h[8:1],,8,7,2h[8:1],,7,8,
{16}5h[8:1],,8,7,2h[8:1],,7,8,{8}4h[8:1],8,2,6,
{4}8b/4b,{16}6,5,6,5,1,,1,2h[8:1],,6,8h[8:1],,
{16}4,,2,1,,6,{8}8h[8:1],4b,2b,8b,6b,
{4}1b/5b,{16}3,4,3,4,
{48}1,2,{24}3h[48:7],{48},,,,,8,7,6h[48:7],,,,,,,2,3,{12}4h[12:1],
{16}6,5,6,3,5,4,5,2,4,3,4,1,{24}7,6,5,8,1,2,
{2}3b/7bqq3[8:5],{16}2,,,2,,,1,,
{8}8q1[8:5],,,7,{16}7,,,6,,,5,,
{16}5V36[16:5],,,2,,,{8}8,8V25[16:5],{16},,,,6,7,
{1}8pp6[16:9],
{16}7-1[8:1],,,2,,,{8}4,{16}5-7[8:1],,,8,,,2,,
{4}3-5[8:1],{8},1V74[8:3],,,3,3,
{16}1s5[16:7],,,,,,,,4,,,6,,,8,,
{1}4pp1[16:9]/8<2[16:9],
{8}1/5h[8:1],2,8/3h[8:1],7,2/6h[8:1],3,7/4h[8:1],6,
{8}3/5h[8:1],2,6/1h[8:1],7,3/8h[8:1],2,5/1h[8:1],6,
{8}3/7h[8:1],{16}2,1,3,8,2h[8:1],,{16}8,1,7,8,6,1,{24}5,6,7,
{16}8h[8:1],,5,7h[8:1],,6,8,,1h[8:1],,4,2h[8:1],,3,1,,
{8}52,{16}8,8,8,8,{8}8,26,{16}1,1,1,1,{8}1,
{8}73,{16}8,8,8,8,{8}8,62,{16}1,1,1,1,{8}1,
{8}37,{16}8,62,,1,{8}37,81,{16}7,35,,2,{8}46,
{16}5h[8:1]/7h[8:1],,,4h[8:1]/2h[8:1],,,6h[8:1]/3h[8:1],,,81,
{48},,,,,,{24}8b/1b,72,63,54,,,
{8}8h[384:1]/2h[384:1],7,6h[384:1]/1h[384:1],2,3h[384:1]/7h[384:1],6,2h[384:1]/5h[384:1],3,
{4}5-7[8:1]/4-2[8:1],5V37[8:1]/4V62[8:1],5-8[8:1]/4-1[8:1],5b/4b,
{16}1/8h[8:1],,2,2,1,4,8h[8:1],,5,5,1h[8:1],,{24}5,4,3,8,7,6,
{16}3h[8:1],,4,2h[8:1],,3,1h[8:1],,8,,8,6h[8:1],,7,5h[8:1],,
{8}1,{24}4,3,2,{8}1h[8:1],4,5-7[8:1],8,2-8[8:1],3,
{8}7,5h[8:1],{16}1,4,3,4,{8}8h[8:1],{16}5,3,,3,{8}5,
{8}2b/6h[8:1],{16}8,7,,7,{8}8,5b/1h[8:1],{16}4,3,,3,{8}4,
{16}2b/6h[8:1],,8,4b/2b,,1,5b/7b,,8,2b/4b,,,1,1,1,1,
{4}1b-5[8:1],{8}6b,8b-4[8:1],,3b,{4}1b,
{16}1,7,1,7,2,6,2,6,{24}2,3,4,6,7,8,{4}2b/1b-5[8:1],
{16}1b/8b,,7,7,6,8,1h[8:1],,3,3,2h[8:1],,{24}8,7,6,3,2,1,
{16}7h[8:1],,8,6h[8:1],,7,5h[8:1],,4,,4,2h[8:1],,3,1h[8:1],,
{8}8b,57,57,57,{24}87,1,2,3,{48},{16}46,,7,8,,
{8}1b/6b,24,24,24,{24}21,8,7,6,{48},{16}53,,1,8,,
{16}2b,6,4,6,4,7,4,5,1b,5,3,8,4b,6,2,4,
{8}8h[4:1],3,5h[4:1],7,3h[4:1],2,8h[8:1],6,
(150)
{24}1b/7b,62,5/3z7[4:7],4v6[16:19],{1},{4},,,{16},{48},
(145)
{3}6h[3:1],{6}4,5h[3:1]/3h[3:1],,,
{2}4h[3:1]/2h[3:1],{6}1h[3:1]/3h[6:1],,4,
(140)
{3}3h[3:1]/5h[6:1],{12}5,4h[256:65],
(135)
{6}6h[6:1],{12},,3,4h[256:65],
(130)
{3}2h[6:1],{6}3,
(120)
{6}4,5,6,
{384},7z3[24:49],4V62[24:49],
E
