&title=Disillusion
&artist=田井中彩智
&first=0
&des=Luvlily
&lv_5=12+
&inote_5=(168){1},
{16},,,,,,,,1>8[2:8]/8<1[2:8],,,,,,,,
{16},,,{32},,{16},,,,,,,,,,,,
{16},,,,,,,,,,,,,,,,
{16},,,,,,,,,,,,,,,,
{16},,,,,,,,,,,,,,,,
{16}2-5[8:1],,,,6,,7h[4:1],,,,6,,58,,,,
{16}8,,2h[8:1],,7,,2h[8:1],,6,,2,,53,,,,
{16}6-1[8:1],,,,2,,3h[4:1],,,,2,,14,,,,
{16}4,,5h[8:1],,3,,5h[8:1],,2,,5,,16,,,,
{16}2h[4:1]/8,,,,3^6[32:4],,24,,,,7,,7,,,,
{16}8h[4:1],,1^6[32:4],,2,,3,,,,3,,24,,,,
{16}7h[4:1]/1,,,,6^3[32:4],,75,,,,2,,2,,,,
{16}1,,8,,2,,7,,3,,6,,45,,,,
{16}3^8[8:1]/7,,,,8,,7h[4:1],,,,6,,85,,,,
{16}8,,2h[8:1],,7,,2h[8:1],,6,,2,,53,,,,
{16}7^4[8:1]/3,,,,4,,3h[4:1],,,,2,,41,,,,
{16}4,,6h[8:1],,3,,6h[8:1],,2,,6,,17,,,,
{16}3h[16:3]/8,,,4,3^6[8:1],,25,,,,8,,8,,,,
{16}6h[16:3]/1,,,5,6^3[8:1],,74,,,,1,,1,,,,
{16}1V37[8:3],,,,7,,7V51[8:3],,,,1,,1<1[4:3],,,,
{16}5,,4h[8:5],,,,,,,,,,,,,,
{16}1h[4:1],,,,3,,3h[4:1],,,,5,,5h[4:1],,,,
{16}6,,47,,,,{24}2,3,4,{16}5,,7,,81,,2,,
{16}3/5v6[16:3],,,,,,4V26[4:1],,,,,,1h[4:1],,,,
{16}7v8[16:3],,,,,,6V48[4:1],,,,,,2h[4:1],,,,
{16}1v2[16:3],,,,,,8V62[4:1],,,,,,5h[4:1],,,,
{16}4qq1[8:4]*pp7[8:4],,,,,,,,,,,,,,,,
{16}2q5[4:2]/8,,,,,,6h[4:1],,,,,,6,,,,
{16}7p4[4:2]/1,,,,,,3h[4:1],,,,,,3,,,,
{16}2p7[4:2]/5,,,,,,4h[4:1],,,,,,4,,,,
{16}1/4,,2,,3,,4,,58,,7,,6,,5,,
{16}2-6[8:1]/4,,,,2,,5-8[8:1],,,,5,,1,,,,
{16}3-8[8:1]/8,,,,3,,7^4[8:1],,,,7,,2,,,,
{16}3/5-1[8:1],,,,5,,3^6[8:1],,,,3,,1-4[8:1]*-6[8:1],,,,
{16}1,,,,3/7-3[8:1],,3-7[8:1]/7,,,,,,1,,,,
{16}12,,3,,4,,25,,6-2[8:1],,4,,56,,,,
{16}13,,8,,2,,61,,3-7[8:1],,5,,34,,,,
{16}1-5[8:1],,6,,1,,8-4[8:1],,3,,8,,2,,2,,
{16}7-3[8:1],,7,,1-5[8:1],,1,,8-4[8:1],,8,,3,,3,,
{16}24,,3,,15,,6,,5,,38,,4,,3,,
{32}7,6,5,4,3,2,1,8,7,6,5,4,3,2,1,8,7,6,5,4,3,2,1,8,7,,,,,,,,
{16}2h[16:3]/4b-7[8:1],,,4,2^5[8:1],,1-6[8:1],,2,,1,,5,,,,
{16}7h[16:3]/5-2[8:1],,,5,7^4[8:1],,8-3[8:1],,7,,8,,4,,,,
{16}2h[16:3]/4-7[8:1],,,4,2^5[8:1],,1-6[8:1],,2,,1,,5,,,,
{16}5/7^4[8:1],,8,,1,,2,,3-7[8:1]/4-8[8:1],,25,,34,,,,
{16}5-2[8:1]/2h[16:3],,,5,2>8[8:2],,8,,1,,2,,3,,,,
{16}4-7[8:1]/7h[16:3],,,4,7<1[8:2],,1,,8,,7,,6,,,,
{16}5-2[8:1]/2h[16:3],,,5,2>8[8:2],,8,,1,,2,,3,,,,
{16}2-6[8:1],,1<3[4:1],,2,,1,,,,,,1,7,1,,
{16}6h[16:3]/8-3[8:1],,,8,6^1[8:1],,5p4[4:1],,6,,5,,1,,,,
{16}3h[16:3]/1-6[8:1],,,1,3^8[8:1],,4q5[4:1],,3,,4,,8,,,,
{16}6h[16:3]/8-3[8:1],,,8,6^1[8:1],,5p4[4:1],,6,,5,,1,,,,
{16}3h[16:3]/1-6[8:1],,,1,3^8[8:1],,4,,3,,7,,6,,,,
{16}5-2[4:1],,,,2^7[4:1],,,,7-4[4:1],,,,4V68[4:1],,,,
{16}8V24[4:1],,,,4V62[4:1],,,,2V84[4:1],,,,4,,,,
{16}1-5[8:1],,,,8,,7h[4:1],,,,5>6[8:3],,4,,3h[8:2],,
{16},,,,3,,3,,64,,5,,2,3,4,5,
{16}6/8pp4[4:3]*qq4[4:3],,,,,,,,,,,,,,,,
{16},,,,1,2,3,4,7,6,5,4,2,3,4,5,
{16}1,,,,6,,57,,,,3,,24,,,,
{16}18,,27,,36,,45,,74,,25,,38,,1b/5b,,
{16},,,,,,,,,,,,,,,,
{16},,,,,,,,,,,,,,,,
