&title=Far east nightbird
&artist=猫叉Master
&first=0
&des=ninomaeP
&lv_5=14+
&inote_5=(180)
{1},
{4},,,{8}1,
{8}2,3/4<7[8:1],,1,1,,6,5,7,
{8}5>2[8:1],,8,8,,2,1,3,
{8}4-8[8:1],,2,2,,7,1,6,
{8}4/5-1[8:1],,3,4,,{16}6,5,6,,4-1[8:7]/7,,
{4},,,8-5[4:3],,,,3,
{16}1,7,8,7,8,7,2,7,8,7,8,7,3,7,8,7,8,7,4,7,8,7,8,7,{32}5,4,3,2,1,8,7,6,{8}5V31[2:1]/1V75[2:1],,,,,,,,
{16}1,2,3,4,5v2[8:1],,,6,5,,7,,8-4[8:1],,,1,8,,2,,
{16}3>8[8:1],,,,3/5,,6,,7<4[8:1],,,,7,,,,
{16}1v6[8:1],,,2,1,,3,,4,,,6,4<7[8:1],,3,,
{16}2/4,,,,,,1-5[8:1],,5-1[8:1],,,,,,,,
{16}34,,2-6[8:1]/5,,,,2/7,,8<5[8:1],,8>3[8:1],,,,,,
{16}4-7[8:1],,,,3/4,,2,,1-5[8:1],,,,1>4[8:1]/7,,,,
{16}8,,,,7,,56,,4<7[8:1],,4>1[8:1],,,,,,
{16}8,,,,7,6,3,4,6,5,2,3,7,6,1,2,
{16}8b,,,{32}8b,7,6,5,,8b,7,6,5,,{16}8,,1-5[8:1],,2,,3b,,
{16},,,,4-8[8:1]/3,,2,,4/3<6[8:1],,,,73,,,,
{16}8-4[8:1],,4-8[8:1],,3,,2,,1,,,{32}1,2,3,4,,1,2,3,4,,
{16}1,,,,,,7-3[8:1],,3-7[8:1],,,,,,,,
{16}4,6,3,5,4,,7b,,,,2-6[8:1],,6-2[8:1],,,,
{16},,,,5-1[8:1],,4,,3>8[8:1],,,,3,,,,
{16}5v2[8:1],,,6,5,,7,,8-4[8:1],,,1,8,,2,,3,,3h[96:1],,5,,5h[96:1],,4,3,2,1,7,6,5,4,
{16}1-5[8:1],,,7,1,,6,,6<1[8:1],,,,4/6,,3,,
{16}2-5[8:1],,,,2/6,,7,,8-4[8:1],,,,1/8,,2,,
{16}3>8[8:1],,,,5/3,,6,,7-4[8:1],,,,7/3>8[4:1],,,,8<5[4:1],,,,5>8[8:3],,,,7,,6,,5p3[2:1]*q7[2:1],,,,,,,,,,,,,,,,,,1/5,2/6,
{16}3-8[8:1]/7-4[8:1],,,,3/7,,,,1-5[8:1],,5-1[8:1],,1,,,,
{16}7<4[8:1],,,8,7,,1,,2q6[8:1],,,,2/1,,,,
{16}8,,8h[8:1],,,,{24}1,2,3,4/7,6,5,4,3,2,8,7,6,5,4,3,
{16}2/1-5[8:1],,,8,1,,7,,6-2[8:1],,,,6/5,,4,,
{16}4<7[8:1],,,,4/3,,2,,1-5[8:1],,,,1>4[8:1]/8,,8,,
{16}7,,,,7,,6,,5/4<7[8:1],,,,4>1[8:1]/2,,,,
{16}4-8[8:1]/6,,,,2/4,,,,2,,3,,4p2[2:1]*q6[2:1],,,,,,,,,,,,,,,,
{16}2-5[8:1],,2,,6,,,,7<4[8:1],,7,,3,,,,1w5[8:1],,1,,
{16},,,,3>8[8:1]/7<4[8:1],,,,3/7,,,,1-4[8:1]/5-8[8:1],,,,
{16}1/5,,,,{24}7,6,5,3,2,1,8,7,6,3,2,1,8,7,6,4,3,2,
{16}1-5[8:1],,5>2[8:1],,,,,,,,6-3[8:1],,1<2[4:1],,6,,
{16}1-5[8:1],,,,1V38[16:3],,,,1w5[8:1],,,,,,,,
{16}7-3[8:1],,3>8[8:1],,,,,,,,5-2[8:1],,8>7[4:1],,5,,
{16}8-4[8:1],,,,8V61[16:3],,,,8w4[8:1],,,,,,,,
{16}2<7[8:1],,7-3[8:1],,,,,,,,4-7[8:1],,1<2[4:1],,4,,
{16}1-5[8:1],,,,1>5[16:3],,,,6w2[8:1],,,,,,,,
{16}8-4[8:1],,4<7[8:1],,,,,,,,3-6[8:1],,8>7[4:1],,3,,
{16}8-4[8:1],,,,8<4[16:3],,,,3w7[8:1],,2,,,,,,
{16},,6h[8:1]/5,4,3,2,1,,3h[8:1]/4,5,6,7,8,,6h[8:1]/5,4,3,2,1,,3h[8:1]/4,5,6,7,8-4[8:1],,4-8[8:1],,,,,,,,3,,,3,,,
{16}3h[8:1]/4,5,6,7,8,,6h[8:1]/5,4,3,2,1,,3h[8:1]/4,5,6,7,8-4[8:1],,4-7[8:1],,,,,,,,
{16}4,3,2,1,7h[8:1],,4,3,2,1,7h[8:1],,3,2,1,8,6h[8:1],,3,2,1,8,7-4[8:1],,4-8[8:1],,,,,,,,2,,,2,,,
{16}5,6,7,8,2h[8:1],,6,7,8,1,3h[8:1],,6,7,8,1,2-5[8:1],,5-1[8:1],,2,,7,,8b<1[8:12],,,,,,,,,,,,,,,,,,,,,,,,,,,,
{8},,
(135)
{8}4h[8:1]/3,2,4h[8:1]/3,1,5h[8:1]/4,3,5h[8:1]/4,2,1/6,1/6,{16}1,2,3,4,
{8}5h[8:1]/6,7,5h[8:1]/6,8,4h[8:1]/5,6,4h[8:1]/5,7,5/6,8/3,{16}6,75,,18,
(180)
{16}1b-5[4:1]/8b,,,,,,,,,,,,4/8,3/7,2/6,1/5,
{16}4-7[8:1]/8v3[8:1],,,,4/8,,,,2v5[8:1],,5>6[8:3],,2,,,,
{16}8,,,,4-7[8:1],,3,,1-5[8:1],,2,,3<8[16:3],,2,,
{16}1-4[8:1]*-6[8:1],,,,1,,,,{16}3/7>5[4:1],2/6,1/5,8/4,3/7,,,,
{16}6V85[4:1],,,,5-1[8:1],,4,,3,,2,,3h[4:1],,,,
{24}7b,6,5,4,3,2,1,8,7,6b/2b,3,4,5,6,7,8,1,2,3b>8[8:1]/7b<4[8:1],,,,,,
{16}3b/7b,,,,1-5[8:1],,2,,6<1[8:1],,7,,4-8[8:1],,3,,
{16}2>5[8:1],,1,,{24}2-6[8:1]/6,7,8,{16}1,,4-8[8:1],,3,,2>5[8:1],,1,,
{24}2-6[8:1]/6,7,8,{16}1,,4,,3,,{24}5/1,6/2,7/3,{16}8/4,,{24}3/7,2/6,1/5,{16}8/4,,
{16}7-2[8:1]/3-6[8:1],,,,7/3,,,,7v4[8:1],,4<3[8:3],,7,,,,
{16}1,,,,5-2[8:1],,6,,8-4[8:1],,7,,6>1[16:3],,7,,
{16}8-5[8:1]*-3[8:1],,,,8,,,,{16}6/2<3[16:5],7/3,8/4,1/5,2/6,,,,
{16}2h[2:1],,,,{16}1,8,7,6,{4}5-1[8:1],{16}2,,3,,
{24}4b/8b,3/7,2/6,1,8,7,6,5,4,3b/7b,2/6,1/5,8,7,6,5,4,3,2b-5[8:1]/6b-1[8:1],,,,,,
{16}6b/2b,,,,8-4[8:1],,7,,3>8[8:1],,2,,5-1[8:1],,6,,
{16}7<4[8:1],,8,,{24}7-3[8:1]/3,2,1,{16}8,,5-1[8:1],,6,,7<4[8:1],,8,,
{24}7-3[8:1]/3,2,1,{16}8,,5,,6,,{24}4/8,3/7,2/6,{16}1/5,,{24}6/2,7/3,8/4,{16}1/5,,
{4}1bqq6[4:4]/5bqq2[4:4],
{4},,,,,
{16},,2/5,,{24}3,4,3,{16}4,,
{24}2b/5b,3/6,4/7,8/5h[8:1],,,1,2,3,4/1b,5/2,6/3,4/7,,,,,,{32}3b/7b,26,15,84,3w7[8:1]/7,
E
