&title=勝利は我が手に!
&artist=BALDR HEART -バルドハート- オリジナルサウンドトラック
&first=1.705
&des=Tane
&wholebpm=141.00
&des_1=Tane
&des_2=Tane
&des_3=Tane
&des_4=Tane
&des_5=Tane
&lv_1=5
&lv_2=6
&lv_3=8
&lv_4=10+
&lv_5=13+
&inote_1=(141.00)
{4}
1>7[2:3],,,,,,,,
8<2[2:3],,,,,,,,
4>6[2:3],,,,,,
,,5h[2:4],,,,,,,,,,
{8}
,,,,
4v7[4:2],,,,,,,,8v6[4:2],,,,,,,,2-5[4:2],,,,,,,,
,,2,,3,,4,,
5p7[4:5],,
,,,,,,,,
,,,,,,
8q6[4:5],,
,,,,,,,,
,,,,,,
1>5[4:5],,
,,,,,,,,
,,,,,,
4<8[4:5],,
,,,,,,,,
,,,,,,
8<4[4:5],,
,,,,,,,,
,,,,,,
5>1[4:5],,
,,,,,,,,
,,,,,,,,
1,,2,,2,,,,3,,4,,4,,,,8,,7,,7,,,,56,,,,56,,,,
8^5[4:2],,,,,,,,1^4[4:2],,,,,,,,5p8[4:2],,,,,,,,,,3h[8:2]/6h[8:2],,,,,,
8,,7,,6,,,,4,,3,,2,,
,,1,,2,,3,,,,5,,6,,7,,
,,6,,6,,2,,,,8,,8,,1,,
1b,,,,27,,,,36
,,,,45,,,,
1h[4:7],,,,,,,,,,,,,,,,
8h[4:7],,,,,,,,,,,,,,,,
1h[4:4],,,,,,,,,,,,7h[4:2],,,,,,,,
4-1[4:4],,
,,,,,,,,
,,
5h[4:7],,,,,,,,,,,,,,,,
4h[4:7],,,,,,,,,,,,,,,,
5h[4:4],,,,,,,,,,,,3h[4:2],,,,,,,,
8<4[4:4],,,,,,,,,,
,,
8h[4:2],,,,,,3,,4,,,,,,,,
1h[4:2],,,,,,6,,5,,,,,,,,
8h[4:2],,,,,,2,,3,,4h[4:2],,,,,,5p7[4:4],,,,,,,,,,
,,,,,,
3h[4:2],,,,,,7,,6,,,,,,,,
6h[4:2],,,,,,2,,3,,,,,,,,
3h[4:2],,,,,,7,,6h[4:2],,,,,,7,,8p2[4:4],,,,,,,,,,,,
,,,,1b/8b,,
{1},,,,,,,,,,,,
&inote_2=(141.00){4}
1>8[2:3],,,,,,,,
8<1[2:3],,,,,,,,
3>5[2:3]/6<4[2:3],,,,,,
,,6h[2:4],,,,,,,,,,
{8}
1h[4:1]/8h[4:1],,,,
4v7[4:2],,,,,,,,8v6[4:2],,,,,,,,2V41[4:2],,,,,,,,
,,27,,36,,45,,
5p7[4:2],,,,,,,,
1p3[4:2],,,,,,,,
8q6[4:2],,,,,,,,
4h[4:2],,,,
5,,7,,
1>5[4:2],,,,,,,,
8,,,,2,,,,
4<8[4:4],,,,,,,,,,,,
4,,2,,
8<4[4:2],,,,,,,,
1,,,,7,,,,
5>1[4:4],,,,,,,,,,,,
8h[8:3],,,,,
,1,,2,,12,,,,3,,4,,34,,,,8,,7,,78,,,,56,,18,,34,,,
,8,,8^5[4:1],,,,,,1,,1^4[4:1],,,,,,5,,5p8[4:1],,,,,,,,3h[8:1]/6h[8:1],,4h[8:1]/5h[8:1],,
1h[4:1],,8,,7,,6,,5,,4,,3,,2,,
8h[4:1],,1,,2,,3,,4,,5,,6,,7,,
4h[4:1],,6,,6h[4:1],,2,,2h[4:1],,8,,8h[4:1],,1,,
1/8,,7/1,,6/1,,5/1,,
2/6,,3/7,,4^2[8:1]/8^6[8:1],,,,
1h[4:7],,,,3,,4,,5,,6,,7,,,,
8h[4:7],,,,6,,5,,4,,3,,2,,,,
1h[4:2],,,,3,,4,,5,,6,,7h[4:3],,2,,3,,,,
4-1[4:2],,,,
,,,,,,,,
5h[4:7],,,,7,,8,,1,,2,,3,,,,
4h[4:7],,,,2,,1,,8,,7,,6,,,,
5h[4:2],,,,7,,8,,1,,2,,3h[4:3],,6,,7,,,,
8<4[4:4],,,,,,,,,,
,,
8h[4:4],,,,2,,3,,4,,,,,,,,
1h[4:4],,,,7,,6,,5,,,,,,,,
8h[4:5],,,,1,,2,,3,,4h[8:4],,7,,6,,5q7[4:4],,,,,,,,,,
,,,,,,
3h[4:4],,,,8,,7,,6,,,,,,,,
6h[4:4],,,,1,,2,,3,,,,,,,,
3h[4:4],,,,8,,7,,6h[4:2],,2,,1h[8:2],,7,,8p2[4:4],,,,,,,,,,,,
,,,,1b/8b,,
{1},,,,,,,,,,,,
&inote_3=(141.00){4}
1>8[2:3],,,,,,,,
8<1[2:3],,,,,,,,
3>5[2:3]/6<4[2:3],,,,,,
,,6h[2:4],,,,,,,,,,
{8}
18,27,36,45,
4v7[4:2]/5v2[4:2],,,,,,,,1v3[4:2]/8v6[4:2],,,,,,,,2V41[4:2]/7V58[4:2],,,,,,,,
,,27,,36,,45,,
5p7[4:2],,,,,,,,
1p3[4:2],,,,,,,,
8q6[4:2],,,,,,,,
4h[4:2],,,,
5,6,7,8,
1>5[4:2],,,,,,,,
8h[4:2],,,,2h[4:2],,,,
4<8[4:4],,,,,,,,,,,,
4,3,2,1,
8<4[4:2],,,,,,,,
1h[4:2],,,,7h[4:2],,,,
5>1[4:4],,,,,,,,,,,,
8,7,6,,,
1,1,1,2,,12,,,3,3,3,4,,34,,,8,8,8,7,,78,,,6,56,,18,,34,,,
5,6,7,8^5[4:1],,,,,4,3,2,1^4[4:1],,,,,8,7,6,5p8[4:1],,,,,1,2,3,45,36,27,18,
1h[4:1],,8,,1h[4:1],,7,,1h[4:1],,6,,1h[4:1],,5,,
5h[4:1],,1,,5h[4:1],,2,,5h[4:1],,3,,5h[4:1],,4,,
4h[4:1],,6,,6h[4:1],,2,,2h[4:1],,8,,8h[4:1],,1,,
1h[8:1]/8h[8:1],,7h[8:1]/1h[8:1],,6h[8:1]/1h[8:1],,5h[8:1]/1h[8:1],,
2h[8:1]/6h[8:1],,3h[8:1]/7h[8:1],,4^2[8:1]/8^6[8:1],,,,
1h[4:7],,,,3,,4,,5,,6,,7h[4:1],,,,
8h[4:7],,,,6,,5,,4,,3,,2h[4:1],,,,
1h[4:6],,,,3,,4,,5,,6,,7h[4:3],,2,,3h[4:1],,,,
4q1[4:2]/8q5[4:2],,,,
,,,,,,,,
5h[4:7],,,,7,,8,,1,,2,,3h[4:1],,,,
4h[4:7],,,,2,,1,,8,,7,,6h[4:1],,,,
5h[4:6],,,,7,,8,,1,,2,,3h[4:3],,6,,7h[4:1],,,,
8<4[4:4]/4>8[4:4],,,,,,,,,,
,,
8h[4:6],,,,2h[8:1],,3h[8:1],,4h[4:2],,,,,,,,
1h[4:6],,,,7h[8:1],,6h[8:1],,5h[4:2],,,,,,,,
8h[4:5],,,,1h[8:1],,2h[8:1],,3h[8:1],,4h[8:5],,7h[8:1],,6h[8:1],,5q7[4:4]/4p2[4:4],,,,,,,,,,
,,,,,,
3h[4:6],,,,8h[8:1],,7h[8:1],,6h[4:2],,,,,,,,
6h[4:6],,,,1h[8:1],,2h[8:1],,3h[4:2],,,,,,,,
3h[4:4],,,,8h[8:1],,7h[8:1],,6h[4:2],,2h[8:1],,1h[8:3],,7h[8:1],,1q7[4:4]/8p2[4:4],,,,,,,,,,,,
3b/6b,4b/5b,3b/6b,2b/7b,1b/8b,,
{1},,,,,,,,,,,,
&inote_4=(141.00){4}
1>8[2:3],,,,,,,,
8<1[2:3],,,,,,,,
3>5[2:3]/6<4[2:3],,,,,,
,,6h[2:4],,,,,,,,,,
{16}
1,,2,,3,,4,,56,,7,,56,,,,56,,8,,56,,,,56,,4,,56,,,,56,,3,,56,,,,
34,,2,,34,,,,34,,1,,34,,,,3h[4:3]/4,,,,1,,,,7,,,,5,,,,
24,,1,,24,,,,13,,8,,13,,,,28,,7,,28,,,,17,,6,,17,,,,
68,,5,,68,,,,57,,4,,57,,,,46,,3,,46,,,,35,,31,,37,,35,,1,,5,,
8-4[8:3],,6-4[8:2],,,,,,,,,,1-5[8:1]/3-5[8:1],,,,,,,,2-5[8:1]/7-4[8:1],,,,,,,,{1}3>5[1:1]/6<4[1:1],{16},,,,,,,,
1b,,3b,,5b,,7b,,28,,45,,17,,4V61[4:1]/5V38[4:1],,,,,,,,,,2<6[8:1]/7>3[8:1],,,,,,,,4p7[8:1]/5q2[8:1],,,,,,,,{1}3V15[1:1]/6V84[1:1],{16}
,,,,,,,,81,,2,,81,,7,,
81,,27,,45,,36,,2,,1,,8,,7-2[8:1],,,,
3,,4,,5,,6,,7,,8,,1-4[8:1],,,,
5,,6,,7,,8,,1,,2,,3-6[8:1],,,,
7,,8b,,,,2b,,,,4b,,,,
45,,36,,18,,27,,6,,5,4,3,,2^7[8:1],,,,
6,,5,,5,,4,,3,2,1,,8^5[8:1],,,,
4,,3,,3,,2,,1,8,7,,6^3[8:1],,,,
2,,1,,1,,68,,35,,13,,46,,
2h[8:1]/7h[8:1],,,,
1/8,,2,,3,,4,5,4h[8:1],,5,,,,
18,,7,,6,,5,,5,4,5h[8:1],,4,,,,
18,,27,,36,,4v3[4:1]/5v6[4:1],,,,,,,,,,
45,,36,,27,,1b/8b,,13,,1b/8b,,86,,57,,
5v2[8:1]/7,,6,,5,,4,,2,3,2,,34,,,,
4v7[8:1]/2,,3,,4,,5,,7,6,7,,56,,
7h[4:1],,,,6h[4:1],,,,5h[4:1],,,,4h[4:1],,,,3h[4:1],,,,2,,,,1q4[8:1],,,,,,,,
8h[8:7],,,,,,5,,3,,1,,2,,3h[8:2],,1,,7h[8:2],,1,,3h[8:4],,1<4[8:1],,,,,,,,
6h[8:7],,,,,,4,,3,,2,,1,,2h[8:2],,5,,8h[8:2],,5,,2h[8:4],,5<1[8:1],,,,,,,,
7h[8:7],,,,,,6,,5,,4,,3,,2h[8:2],,8,,6h[8:2],,8,,2h[8:2],,8,,5h[8:2],,8,,3h[8:3],,8h[4:1],,,,,,
45,,17,,45,,36,,27,,1^4[8:1]/8q5[8:1],,,,,,,,6,,5,,4,,3,,
2h[8:7],,,,,,4,,6,,8,,7,,6h[8:2],,8,,2h[8:2],,8,,6h[8:4],,8>5[8:1],,,,,,,,
3h[8:7],,,,,,5,,6,,7,,8,,7h[8:2],,4,,1h[8:2],,4,,7h[8:4],,4>8[8:1],,,,,,,,
2h[8:7],,,,,,3,,4,,5,,6,,7h[8:2],,1,,3h[8:2],,1,,7h[8:2],,1,,4h[8:2],,1,,6h[8:3],,1h[4:1],,,,,,
45,,28,,45,,36,,27,,1p4[2:1]/8^5[2:1],,,,,,,,,,,,,,,,
1h[8:3],,5,,6,,5,,2h[8:1],,6,,3h[8:1],,7,,4h[8:4],,8,,7,,6,,5,,,,,,,,
4h[8:3],,7,,6,,5,,3h[8:1],,6,,2h[8:1],,7,,1v4[4:1],,8,,7,,6,,5,,,,,,,,
1h[8:3],,,,,,,,1^3[8:1],,,,1^7[8:1],,,,1-4[8:1],,,,1-6[8:1],,,,1^4[8:1],,,,1^6[8:1],,,,{1}1w5[1:1],{16},,,,
,,,,,,,,,,,,
8h[8:3],,4,,3,,4,,7h[8:1],,3,,6h[8:1],,2,,5h[8:4],,1,,2,,3,,4,,,,,,,,
5h[8:3],,2,,3,,2,,6h[8:1],,3,,7h[8:1],,2,,8v5[4:1],,1,,2,,3,,4,,,,,,,,
8h[8:3],,,,,,,,8^6[8:1],,,,8v3[8:1],,,,8p4[8:1],,,,8^2[8:1],,,,8v5[8:1],,,,8q4[8:1],,,,{1}8p5[2:3]*q3[2:3],,{16}
1b/7b,
{1},,,,,,,,
&inote_5=(141.00){4}
1>8[2:3],,,,,,1,,
8<1[2:3],,,,,,8,,
4>5[2:3]/5<4[2:3],,,,,,
,{24},,,,,,5<4[2:3]/6h[2:4],,,,,,{4},,,,,,,5b,,
{16}
7h[8:4]/5,,8,,1,,2,,
3^5[8:1],,7,,8h[4:1],,,,
2-5[8:1],,6,,8h[4:1],,,,
1q5[8:1],,5,,8h[4:1],,,,
4p8[8:1],,8,,5h[4:1],,,,
3-8[8:1],,7,,5h[4:1],,,,
2^8[8:1],,6,,5h[4:1],,,,
1-4[8:1],,,,13,,,,5-8[8:1],,,,57,,,,
1-5[8:1]/8,,2,,13,,,,
5-1[8:1]/4,,6,,57,,,,
8-4[8:1]/1,,7,,86,,,,
4-8[8:1]/5,,3,,42,,,,
1-5[8:1]/8,,2,,18,,,,
8-4[8:1]/1,,7,,81,,,,
1-5[8:1]/8,,2,,18,,7,,
8-6[8:1],,6-1[8:1],,
1-4[8:1],,4>6[4:1],,
{8}5,5w1[8:1],5,,
,,,,
{8}1<5[2:1],,,,
5p4[2:1],,,,
{8}4>4[4:4],,,,
,,,,
,,,,
{16}1-3[8:1],,3-8[8:1],,
8-5[8:1],,5<3[4:1],,
{8}4,4w8[8:1],4,,
,,,,
{8}8q1[2:1],,,,
1,,,,
{16}2,1,3,8,
4,7,5,6,
3,4,2,5,
1,6,8,7,
{16}1,5,2,6,
3,7,4,8,
{16}13,,68,,
1,8,1,,
{8}2-4[8:1],1,2/8,6,
{16}3,,2-5[8:1],4,
1,,82,,
{8}7-5[8:1],8,7/1,3,
{16}6,,7-4[8:1],5,
8,,17,,
{8}2-5[8:1],1,2/8,6,
{16}3,,2^5[8:1],4,
1,,82,,
{8}7-4[8:1],8,7/1,3,
{16}6,,7^4[8:1],5,
8,,17,,
{8}2-5[8:1],8-4[8:1],2,8,
{16}3,,2-5[8:1],4,
1,,82,,
{8}7-4[8:1],1-5[8:1],7,1,
{16}6,,7-4[8:1],5,
8,,17,,
{8}1-5[8:1],8-4[8:1],1,8,
{16}3,,2-5[8:1]/7-4[8:1],,
18,,27,,
{16},,6,7,
8,1,2,3,
4,5,4,,
45,,36,,
{8}2-5[8:1],6-1[8:1],2,6,
{16}3,,2^5[8:1],8,
3,,62,,
{8}7-4[8:1],3-8[8:1],7,3,
{16}6,,7^4[8:1],1,
6,,37,,
{8}2^5[8:1],6^1[8:1],2,6,
{16}3,,2-5[8:1],8,
4,,62,,
{8}7^4[8:1],3^8[8:1],7,3,
{16}6,,7-4[8:1],1,
5,,37,,
{8}1v3[8:1],4-8[8:1],1,4,
{16}2,,1-4[8:1],7,
2,,15,,
{8}8v6[8:1],5-1[8:1],8,5,
{16}7,,8-5[8:1],2,
7,,84,,
{16}1,4,2,5,
3,6,4,7,
4,8,3,7,
2,6,1,5,
{24}1,8,7,6,5,4,
3,2,1,8,7,6,
51,,,8,,,
7,,,6,,,
{8}1h[8:3],8^5[8:1],7,8,
1^4[8:1],2,1^6[8:1],7,
{8}1^4[8:1],3,1pp6[4:1],7,
4h[4:1],,,,
{8}1h[8:3],5^8[8:1],6,5,
4^1[8:1],3,4^7[6:1],6,
{8}4^1[8:1],2,4pp2[4:1],6,
1h[4:1],,,,
{8}1h[8:3],8^5[8:1],7,8,
4^1[8:1],3,4q8[8:1],7,
{8}4-1[8:1],2,4^7[8:1],6,
4^1[8:1],3,4qq6[4:1],5,
{8}1h[8:3],,,8,
{16}7-5[8:1],,8,,{8}1pp5[8:3]/7,8,
{8}1,,,,
{16}5,4,6,3,
7,2,8,1,
{8}8h[8:3],1^4[8:1],2,1,
8^5[8:1],7,8^3[8:1],2,
{8}8^5[8:1],6,8qq3[4:1],2,
5h[4:1],,,,
{8}8h[8:3],4^1[8:1],3,4,
5^8[8:1],6,5^2[6:1],3,
{8}5^8[8:1],7,5qq7[4:1],3,
8h[4:1],,,,
{8}8h[8:3],1^4[8:1],2,1,
5^8[8:1],6,5p1[8:1],2,
{8}5-8[8:1],7,5^2[8:1],3,
5^8[8:1],6,5pp3[4:1],4,
{8}8h[8:3],,,1,
{16}2-4[8:1],,1,,{8}8qq4[8:3]/2,1,
{8}8,,,,{16}4,5,3,6,
2,7,1,8,
{8}1h[4:1]/7-5[8:1],,7,,
1-5[8:1]/8-6[8:1],,1/8,,
{8}3h[2:1]/7-5[8:1],,7,,
8-6[8:1],4,3/8,2,
{8}1h[4:1]/7-5[8:1],,7,,
1-3[8:1]/8-6[8:1],,1pp5[8:3]/8,,
{8}1/7-5[8:1],,7,,
8-6[8:1],1,28,3,
{8}2h[4:1]/7-5[8:1],,7,,
1/8-6[8:1],2,1-3[8:1]/8,,
{8}1-5[8:1]/7-5[8:1],,1-4[8:1]/7,,
1-5[8:1]/8-6[8:1],,1-3[8:1]/8,,
{8}1/7-5[8:1],,27,1,
1/8-6[8:1],2,38,4,
{8}56,78,12,34,
{16}6,5,6,5,
47,,12,,
{8}8h[4:1]/2-4[8:1],,2,,
8-4[8:1]/3-1[8:1],,8/3,,
{8}6h[2:1]/2-4[8:1],,2,,
3-1[8:1],5,6/3,7,
{8}8h[4:1]/2-4[8:1],,2,,
8-6[8:1]/3-1[8:1],,8qq4[8:3]/3,,
{8}8/2-4[8:1],,2,,
3-1[8:1],8,73,6,
{8}7h[4:1]/2-4[8:1],,2,,
8/3-1[8:1],7,8-6[8:1]/3,,
{8}8-4[8:1]/2-4[8:1],,8-5[8:1]/2,,
8-4[8:1]/3-1[8:1],,8-6[8:1]/3,,
{8}8/2-4[8:1],,72,8,
8/3-1[8:1],7,63,5,
{8}43,21,87,65,
{16}3,4,3,4,
2,5,1,6,
{16}7b/8b,,,,
,,,,
,,,,
,,,,{8},,,,
,,,,
{8},,,,
,,,,{8},,,,
,,,,
{1}
,,,,,,,,
