&title=大家好
&artist=Memme
&first=0.05
&des=Popplio
&lv_5=14
&inote_5=(170)
{1},
{4}3h[2:1],,5,7h[2:1]/3,{8}E6,E5,E4,,1/7,1,2/6,6,3h[4:1]/5,,7,6h[4:1]/4,,8,1,2h[2:1]/5,,1,8,7,6-3[8:1]*-4[8:1],,6,,7h[2:1],,,,1,,2h[2:1]/6,,E4,E5,E6,,
{8}3/5,2,4-8[8:1]/6,7,4,6^3[8:1],1,6,,2q6[8:1],1,2,,7^2[8:1],6,7,3,{24}E4,B4,B5,{8}E6,E8/B8,3>6[4:1],,6<3[4:1],,,,7,6,5-8[8:1]*-2[8:1],,5,,6,{24}E6,B5,B4,{8}E4,E2/B2,6<3[4:1],,3>6[4:1],,,,2,3,4/7,{24}5,6,5,{8}6,7/3,4b/5b,,1,7,6<3[4:1]/2,,3>6[4:1],,,,2,3,4-1[8:1]*-7[8:1],,4,,7/8,6,4/5,3,2/1,{24}1x/2x,3,4,{8}5,3/7,1h[8:1]/8h[8:1],,2,6,7/8,{24}7x/8x,6,5,{8}4,2/6,1x,7x,2b/6b,,
{8}2-5[8:1],3,8-4[8:1],1,3-7[8:1],2,5-1[8:1],6,2-6[8:1],3,7-4[8:1],8,2,1,
2/6,{24}3,4,3,{8}4,8x,2x,{24}6,5,6,{8}5,1x,7x,{24}E8/B8/2x,3,4,5,,,E2/B2/7x,6,5,{8}4,2/6,{16}7h,3h,7h,3h,8h,,2/6,,
{8}7-4[8:1],6,1-5[8:1],8,6-2[8:1],7,4-8[8:1],3,7-3[8:1],6,2-5[8:1],1,7,8,7/4,
{24}8/1,2/7,3/6,{8}5b-1[8:1]/4b-8[8:1],7/2,5xb/4xb,,3/6,{24}2b/7b,3,4,5,6,7,8,1,2,{8}3-8[8:1]/7-4[8:1],,3b/7b,,{16}1,2,3,4/8,7,6,5,,
{8}8/5bx,5,2/5,5,7/5,5,3/5,5,6/2xb,2,2/8,2,2/4,2,2/6,
{24}1b/5b,2/6,3/7,{8}4/8,4x,4x,{24}8b/4b,3/7,2/6,{8}1/5,5x,5x,{16}3,4,2,,7,5,6,,4/8,,2h,6h,2h,6h,1h,,3/7,,
{16}A5/A6/D6,,,A2/A1/D2,,,A7/A8/D8,,
{16}A2,E3,E4,A4,A8,E8,E7/4,,
{6}6bx/5,2/1b,4/5bh[24:10],{8},{48},A8f,D8,A7,D7,A6,D6,D5,A4,D4,A3,,,,,,,,{8}6h[8:1]/2,4,3h[8:1]/7,5,8/2,{16}5,7,4,6,3,5,2,,1,8,2,7,3,,4b/5b,,,,
{8}1/8,2/7,3/6p4[8:4],,4,3,2,1>8b[8:5],,1,,,8q1b[8:4],,5,6,7^4[8:1],,7,,2h[8:1],3,7h[8:1],6pp3[8:5],1xh[4:3],6b,,,
{8},,,2,4,3/5,8V26b[8:3]/4,,3,4,8,1,2,3V51b[8:3]/7,,8,7,4,5,6/2,7-3[8:1]/3,4,
{8}7/3,1-5[8:1],6,1/7,,8/3-7b[8:1],6,3/5,,1/6-1b[8:1],3,6/4,,8qq5[2:1]/4qq1[2:1],1/5,4/8,,,,,
{8}2,{24}E3,B3,B4,{8}E5,E1/B8,3>6[4:1],,6<3[4:1],,,,7,6,5-8[8:1]*-2[8:1],,5,,7,{24}E7,B6,B5,{8}E5,E1/B1,6<3[4:1],,3>6[4:1],,,,2,3,4,{24}5x/7x,6x/4x,5x/3x,{8}4x/2x,1/8,2b/6b,
,2,7,6<3[4:1]/3,,3>6[4:1],,,,2,3,4-1[8:1]*-7[8:1],,4,,7/8,6,5/4,3,2/1,{24}3x,4,5,{8}6,4/8,2/6,,2,6,
{16}B4/E4/D4/B3/8xb,,,A7/A6/E7`C,,,A1/D2/A2/E2/5xb,,
{8},3/6,1^4[8:1]/8^5[8:1],,
{4}1b/8bp6b[8:10],,,,3-8[8:1],,{8}1^4[8:1],,,8,2/6>7[8:6],,,,,,,,
{16}3-8[16:1],,,7-3[16:1],,,1-5[16:1],,,4,,,6,,7,,
{8}5<4[8:6]/8,,,,,,,5,6V82-4b[8:5],,,,,,,8,1-5[8:1],,,,7-3[8:1]*-4[8:1],,,,
{16}2/5,,,4/7,,,1/8,,1/3,,,8/6,,,5/4,,
{16}2bh[16:9]/1,,8h[16:1],,,7h[16:1],,,6h[16:1],,,5,3,,6/2,,7xh[16:3],,,5xh[16:3],,,4xh[16:3],,,2xh[16:3],,,6,,6,,7bh[16:9]/8,,1h[16:1],,,2h[16:1],,,3h[16:1],,,4,6,,3/7,,2xh[16:3],,,4xh[16:3],,,5xh[16:3],,,7xh[16:3],,,1,,1,,
{8}2p5p8[8:4]/6h[4:3],,,,,,,6,5-1^8-4[8:4]/2h[4:3],,,,,,,2,2b/4b,3/5,4/6,5/7,4/8,3/7,6/2,5/1,8bh[2:1]/4bh[2:1],,,,,,Cf,,
{16}2/5,,3,5,,4,6,,5,7,,2,8h[8:1],,3,,1/6,,7,1,,8,2,,1,3,,6,4h[8:1],,7,,
{16}2/6,,5,3,,7,5,,2,4,,3,5,,6/2,,2V47[4:1],,,,7V51[4:1]/2,,,,1w5b[8:1],,,,,,,,
{16}3,,6,5,,5,6,,3,4,,4,3-7[8:1],,2,,3/1,,8,6,,6,8,,4,2,,2,4-1[8:1],,5,,4/6,,7,8,,8,7,,2,1,,1,2,,3,,7/8,,,1/5,,,3/2,,1p4[8:1]/8q5[8:1],,7/2,,1b/8b,Cf,,,
{16}2,,3,4,3,,2/5,,6^1[8:1],5,,5,6,,3,,7,,6,5,6,,7/4,,3^8[8:1],4,,4,3,,6,,
{16}2,,4,5,3,,6/4,,7,1,,1,7,,3/7,,
{8}4b^1[8:1]/8b^5[8:1],4b/8b,4b/8b,,
{16}8xbh[16:3],,,2bh[16:3],,,4bh[16:4],,
{16}6,,6,5,7,,4/8,,3,4,,6,5,,3/7,,6,,2,4,,7,5,,3,4/2,,6,5/7,,1/8,,
{16}6,,3,4,2,,5/1,,7,6/8,,2,1/3,,4/5,,
{48}1bx,D2,A2,D3,A3,,,,5bx,D6,A6,D7,A7,,,,{48}A1/E1/E2f,,,,,,,,
{8}7,6,5/4,3,2h[8:5]/1b,,3,,5,,6p4[2:1],6,,,E2/B1,,2,3,4/5,6,7/8bq2[2:1],,7,6,5,6,7,8,,{16}6,5,7,4,8,3,5,2,6,1,7,,3/5,,
{8}6-3[8:1]*-4[8:1],,6,,7/1,2/6,3/5,4h[8:3],,,8b,,6,2,8,4,3b/7,,3,7bh,1/5,3bh,6,E8f/4h[8:17],,,,C,,,B3,
E
