&title=Ready Steady
&artist=Giga
&first=0
&des=MYOU
&lv_5=13+
&inote_5=(115){1},
{16}5,6,,65,,4,3h[4:1],,2,,4h[4:1],,1,,3,,
{16}5,6,,56,,4,3h[4:1],,5-8[8:1],,6,,2b,,,,
{16}5,6,,47,,4-2[16:1],3,,5-7[12:1],,6,,4-2[12:1],,3,,
{16}5,6h[4:1],,1,,5,6,,{48},,4-1[16:1],,5,,3,,,6,,,{4}6b,
{8}37,8,2/4-1[8:1],1q5[8:1],6,8,6,8h[8:1],
{8}5<8[8:1],4,3qq1[8:1],2,{16}7p3[32:3],,7,7,,1,,4h[16:3]/8V24[8:1],
{16},,,,,,7,,8>3[8:1]/6>3[8:1],68,,7,,,,,
{16}4h[16:1]/2h[16:1],,,5h[16:1]/4h[16:1],,,7/5,,7/5-3[32:3]*-8[32:3],,,,5b,,,,
{8}62,1,7/5v8[8:1],8V64[8:1],3,1,3,1h[8:1],
{8}4-1[8:1],5,6-4[32:3],7,{16}2-6[32:3],,2,2,,7,,8h[16:3]/5p8[8:1],
{16},,,,,,17,,3/4-1[8:1]*-7[8:1],34,,5,,,,,
{32}1b/6,2,{16}3,,{32}8bqq3[16:5]/4,7,{16}6,,,,2h[16:5],,,,,,,25,
{16}25,,46,,5<8[8:1]/8,,46,,2/5>2[8:1],,4,4,,7,,15,
{16}15,,34,,48,,56,,1-6[8:1]*-5[8:1]/5,,3h[16:1]/4h[16:1],,,,,,
{16}6,5,8,5,6p1[8:1],,7,,8q5[8:1],,,,,,,,
{16}3,4,1,4,3q8[8:1],,2,,{12}1h[196:1],2h[196:1],3h[196:1],4h[196:1],5h[196:1],6h[196:1],
{16}78,,25,,1q5[8:1]/2,,47,,18,,6<4[4:1],6,,,3h[4:1],,
{16},,,,36,,7,4,1-4[8:1]*v6[8:1],,,,,,,,
{16}37,,26,,37,,26,,7/3,,2,4,,6,5pp8[16:5]*qq2[16:5],,
{8}64,,,,,1,21,38,
{8}4-1[8:1]/7v4[8:1],,,,2-5[8:1]/5v7[8:1],,,,
{12}6,5,4,{8}3,5,7h[4:1],1,1>4[8:1],,
{8}1,7,8<5[8:1],3,8,1>4[8:1]*q5[8:1],,1,
{8},56,7,18,2v1[8:1]/7v8[8:1],,27,,
{16}3-1[16:1],5,4,6,,8,,1,6,4,5,3-1[16:1],,24,,8,
{16},6,5,7,1,5,4,6-4[12:1]*-8[12:1],2,7,5,,,,,2,
{12}3b-1[16:1],4b,5b,6b-8[16:1],5b,4b,{16}3b<6[8:1],,,,,,8-4[8:1],,
{16}1h[16:1],7,,,{8},,25,1,47,8,
{8}3b/5b-1[8:1]*-8[8:1],1b-4[8:1]/8b-4[8:1],,,,35,1/2-5[12:1],78,
{8}2/5-8[12:1],,5/8-3[12:1],,38,4,56,7,
{8}2b/8b-5[8:1]*-4[8:1],4b-1[8:1]/5b-1[8:1],,,,,1-5[8:1],2/4,
{8},8-4[8:1],5/7,,1,1,4>1[12:1]/5<8[12:1],18,
{8}4b/5b,,{32}1b/8b,27,36,4h[32:5]/5h[32:5],{8},,78,12,35,
{8}4-1[12:1]/7-3[12:1],,7/4-6[12:1],,41,2<3[4:1],5q1[8:1],5,
{8},,2pp4[8:1]/1qq7[8:1],83,,,2pp5[16:5]/1qq6[16:5],83,
{8},,,,47,3h[8:1],4h[8:1],5h[8:1],
{16}6-1[12:1],,,,,,4,4,6-1[12:1],,3,3,,,,,
{16}2,34,,,2,3/5h[16:1],,,2<4[4:1],36,,,7h[8:1],,,,
{16}8b-5[12:1],,,,,,2,2,8-5[12:1],,3,3,,,,,
{16}3,24,,,3,25,,,3<6[12:1],26,,,8b,,,,
{16}35,,1,,46,,8,,3/4h[8:1],,1,4,,6,5,,
{16}45,,8,,46,,1,,35,,7,5,,3-8[16:1],4,,
{16}3/6h[4:3],,,,,,8,,,8,,,8>4[8:1],,,,
{16}5bp1[8:1]*-2[8:1],,,,,,,,8-4[12:1],,,,4>1[12:1]/8<5[12:1],,,,
{8}4b/8bpp3[16:7],,,,5pp8[16:6],5,,2bpp5[16:6],
{16},,,,7,7,,,6,,74,,8-5[12:1],,4>1[12:1],,
{8}8bz4[16:4],4b,,,1pp8[16:4],,5,5bpp4[16:4],
{8},3,3h[4:1],,5,17,46,28,
{8}5b/3bq4[4:1],1b/8b,4b<3[16:5]/3b,,,4>6[16:4],4,5,
{8}5w1[8:1],,5,,28,7,53,71,
{8}6b-2[8:1]/4b-8[8:1],8bV25[16:3]/2bV85[16:3],,,,,5-2[8:1],6h[8:1]/2-4[8:1],
{8},8-6[8:1],6-1[8:1],,4,2,4z8[8:1]/5s1[8:1],18,
{8}4b/5b,,{32}1b/8b,27,36,4h[32:5]/5h[32:5],{8},,78,12,34,
{8}5<8[12:1]/1-5[12:1],,1/5>2[12:1],,58,7>6[4:1],4p8[8:1],5,
{8},,7qq5[8:1]/8pp2[8:1],16,,,7qq4[16:5]/8v3[8:1],16,
{16},,,,,,2,2,6h[8:1],,5h[8:1],,4h[8:1],,3v5[8:1],,
{16}5p1[8:1],,,,,,7,7,8,,2/6v4[8:1],,4V61[16:3],,,,
{8},2,4-8[8:1],56,7h[4:1],,8,2bV41[4:1]/6b,
{8},1-5[8:1],5-8[8:1],8,6h[4:1],,1,2bV48[4:1]/4b,,8-5[8:1],5,7-3[8:1],{24},,,{8}7h[24:9],,,
{1}1b>5[2:1],
{16}5,6,,47,,4-8[32:3],3,,5-1[8:1],,6,,4,,3,,
