&title=デッド・パロディ・ダンス
&artist=ど~ぱみん
&first=0
&des=炸毛的蒲公英霸主
&lv_5=13+
&inote_5=(132){4},,,,{256}1bxV73-5[16:9],
8bxV26-4b[16:9],{384},,,,,,,,,,,,,{48}2bx/7bx,3bx/6bx,{12}5bx/4bx,{6},,,,,{4}2bx/E5f,
8bx/Cf,E1f/2bx>7b[8:1],{32}D3,D4,D5,D6,{8}D7,
{12}6bx,{24}5,7,{12},2x,{24}4,3,{12},6<1[8:1],{24}5,7,{3},{12}2,
{24}4,3,{12},6,{24}5,7,{12},2>5b[8:1],{24}4,3,{3},{12}6,
{24}5,7,{12},2x,{24}4,3,{12},6<1[8:1],{24}5,7,{3},{8}3xh[12:1],
E1,6xh[12:1],C,1xh[12:1],E5,{4}2x/7x,
{12}3bx,{24}4,2,{12},7x,{24}5,6,{12},3qq4[4:1],{24}4,2,{3},{12}7,
{24}5,6,{12},3,{24}4,2,{12},7qq8b[4:1],{24}5,6,{3},{12}2,
{24}1,3,{12},6x,{24}5,7,{12},3qq4[4:1],{24}4,2,{3},{4}6xh[8:1],
5xh[8:1],4xh[8:1],3x-7b[8:1],
{64}3bpp2b[2:3]/7bpp6b[2:3],Cf,{1},{4},,,{16},,,{32},{2}5x/1x>4[8:1],
8<5b[8:1],
1>4[8:1]/5<8[8:1],{4}3/7,5/4-1b[8:1],
8h[4:7],E1,E2,E3,
E4,E5,C,E1,
{2}5x/2xv3-5[24:7],6v7-1b[24:7],
4z8[8:3],8p4[8:1]*q4[8:1],
{4}Cf,1h[8:1],4h[8:1],5h[8:1],
{8}6h[8:1],B5,4h[8:1],C,6h[8:1],B5,4h[8:1],C,
6h[8:1],5,3h[8:1],4,5<8[8:1],7,,1>4[8:1],
{4}3,{8}8h[8:1],E5,2h[8:1],C,6h[8:1],E1,
{4}4xh[8:1],8h[8:1],5h[8:1],4h[8:1],
{8}3h[8:1],B2,5h[8:1],B6,3x<6[8:1],E2/E8,{4},{8}1xs5[8:1],
1x/8x,{4},{8}8xz4[8:1],8x/1x,{4},{24}2x,
6x,2x,6x,2x,6x,2x,6x,2x,6x,2x,6x,2x,6x,2x,6x,2x,6x,{4}Ch[8:1],
{12}6bx,{24}6,1h[8:1],{12},7,{24}7,4h[8:1],{12},6-4[32:3],{24}6,5,,7xh[6:1],{4},{12}3,
{24}3,4,,2,{8}1x,7/8,1-4[8:1]*-6[8:1],2/4,{4}1b,
{8}2h[8:1],{24}8,,8,{8}5h[8:1],{24}6,,6,{8}1h[8:1],{24}4,,4,{4}Cf,
{8}1/6,{24}3,,4x,{12}5,{24}4x,3,,4x,{12}5-7[8:1]*-1[8:1],{24}4x,3,{3},{12}2b,
{24}2,8h[8:1],{12},3,{24}3,5h[8:1],{12},2<7[8:1],{24}2,1,,3xh[6:1],{4},{12}6x,
{24}6,5,,5,{12}7,{24}7,3,,3,{12}4,{24}4,2,,2,{4}8x-4b[8:1],
8/3>8[8:1],{8}3/7<4[8:1],6,7/1w5b[8:1],2,{4}1b,
{12}7b,{24}5,6,{12},2b,{24}4,3,{12},8b,{24}5,6x,,6x,{12}4xqq8b[4:3],{24}4xq7[3:2],5x,{12},,,,,,,,,,,,,{32}1h[4:1]/5h[4:1],
{4},{32}2x/6x,3x/7x,4x/8x,{8},{32}8h[4:1]/4h[4:1],{4},{32}7x/3x,6x/2x,1x/5x,{8},3v8[8:1],
2,7v4[8:1],6,1V35[32:5]*V75b[32:5],1,{32}D2/D1,B1,D3/D8,D4/D7,{8}D5/D6,
3xh[8:1],{32}E6,E5,{16},{8}2xh[8:1],{32}B7,C,{16},{32}1xh[8:1],{8},{32}2x/8x,3x/7x,4x/6x,{4}5x,
{8}6xh[8:1],{32}E4,E5,{16},{8}7xh[8:1],{32}B2,C,{16},{32}8xh[8:1],{8},{32}7x/1x,6x/2x,5x/3x,{4}4x,
{32}8h[4:1]/4h[4:1],{4},{32}7x/3x,6x/2x,5x/1x,{8},{32}1h[4:1]/5h[4:1],{4},{32}2x/6x,3x/7x,8x/4x,{8},6q2[8:1],
7,4v7[8:1],3,8>4b[32:5]*<4[32:5],8,{32}D1/D8,B8,D2/D7,D3/D6,{8}D4/D5,
6xh[8:1],{32}E4,E5,{16},{8}7xh[8:1],{32}B2,C,{16},{32}8xh[8:1],{8},{32}7x/1x,6x/2x,5x/3x,{4}4x,
{8}3xh[8:1],{32}E6,E5,{16},{8}2xh[8:1],{32}B7,C,{16},{32}1xh[8:1],{8},{32}2x/8x,3x/7x,4x/6x,{4}5x-7>8-4>3-1<1[4:3],
{1}Cf,
{16}2xh[8:1]/E1f,{8},{16}4h[8:1],{8},3h[2:1],E2,E3,E4,E5,
{16}7xh[8:1],{8},{16}5h[8:1],{8},6h[2:1],E8,E7,E6,E5,
{16}2xh[8:1],{8},{16}4h[8:1],{8},3,{16}3xh[16:1],5xh[16:1],4xh[16:1],6xh[16:1],{8}5x,{16}7xh[16:1],5xh[16:1],
6xh[16:1],4xh[16:1],{8}5x,{16}2,4,3,3,5,5,4,4,{4}6-8[32:3],
{16}6bx/5bx,{8},{16}1h[8:1],{8},1,4,{16}4,3,{8}5,6/4,
6h[8:1],{16}5,5h[8:1],,4,{8}4h[8:1],3,{16}3,4,{4}2-4[32:3],
{16}2bx/1bx,{8},{16}8h[8:1],{8},8,{16}5,6,4,4,{4}7-5[32:3],
{16}8bx/7bx,{8},{16}1h[8:1],{8},1,{16}7,8,6,6,2,1,{8}3,
E1f/E2/E8,E3/E4,{4}E7/E6,{8}3h[8:1],1,4,2/5,
6h[8:1],8,5,4/7,3,{24}4x-1[8:1]*-7b[8:1],,2x,{4}5x,
{8},E3/E4,{4}E7/E6,{8}6h[8:1],8,5,4/7,
3h[8:1],1,5h[8:1],7,3,{24}5x<8[8:1]*>2b[8:1],,4x,{4}6x,
{8},E3/E4,{4}E7/E6,{8}1h[8:1],4,7h[8:1],5,
2h[8:1],{24}5x,,5x,{12}4x,3x/6x,2x/7x,{2}1bx-5b[8:1]/8bx-4[8:1],
{8}2/6,4,3/7-5[32:3],5,7/3-1[32:3],1,3/7,5,
{2}1b-7<6-2>3-5[2:1],5x<5[4:1],
{4}Cf,8h[8:1],5h[8:1],4h[8:1],
{8}3h[8:1],B2,5h[8:1],B6,3h[8:1],B4,5h[8:1],C,
3h[8:1],4,6h[8:1],5,4-1[8:1],2,,8-5b[8:1],
{4}6,{8}1h[8:1],E5,7h[8:1],C,3h[8:1],E1,
{4}5xh[8:1],1h[8:1],4h[8:1],5h[8:1],
{8}6h[8:1],B7/E7,4h[8:1],B3/E3,6x>3[8:1]*-3[8:1],E2/E8,{4},{8}1xs5[8:1]/7z3[8:1],
7x/1x,{4},{8}2xs6[8:1]/8xz4[8:1],2x/8x,{4},{24}3x,
7x,3x,7x,3x,7x,3x,7x,3x,7x,3x,7x,3x,7x,3x,7x,3x,7x,4x,7x,5x,7x,6x,7x,
{1}8xh[8:15],
1bxh[8:15],
7xh[8:15],
2bxh[8:15],
6xh[8:15],
3bxh[8:15],
5xh[4:7],
4bxh[4:3],
{32}1bx/A6f,E6,{16}E5,{8},{32}8bx/A3f,E4,{16}E5,{8},{2}Cf/1bx-4[8:1]*-6b[8:1],
{12}7x-5[32:3],{24}7x,1x,{12},7x-1[32:3],{24}2x,3x,{12},7x-3[8:1],{24}3x,4x,,Cf,{4},{12}1,
{24}1,3,,3,{8}2V41-5[3:1],4/7,1bx,6bx,{4}8bx,
{8}8h[8:1],{24}5,,6,{8}3h[8:1],{24}5,,4,{8}7h[8:1],{24}3,,4,{8}2h[8:1],{24}5,,4,
{12}6,{24}2,1x,,3,{12}4x,{24}1,8x,,5,{12}6x>3b[8:1],{24}8,7x,{3},{12}1x-3[32:3],
{24}1x,6x,{12},1x-4[8:1],{24}7x,6x,{12},1x-5[8:1],{24}8x,7x,,Cf,{4},{12}7,
{24}7,5,,5,{12}4,{24}4,2,,2,{8}1<6[8:1]*>4b[8:1],8/3,{4},{8}2h[8:1],
{24}7,,8,{8}6h[8:1],{24}2,,1,{8}4bw8b[8:1],6b/2b,{4}Cf/B4/B8/A8/A4,
{12}2b,{24}4,3,{12},7b,{24}5,6,{12},1b,{24}4,3x,,3x,{12}5x,{24}5x,4xpp1>2b[8:5],{12},,,,,,,,,,,,,1bh[8:1],
{24}6x,5x,{12},1h[8:1],{24}3x,4x,{12},1-5[8:1],{24}6x,5x,{3},{12}8h[8:1],
{24}3x,4x,{12},8h[8:1],{24}6x,5x,{12},8-4[8:1],{24}3x,4x,{3},{12}1h[8:1],
{24}6x,5x,{12},1h[8:1],{24}3x,4x,{12},1-5[8:1],{24}6x,5x,{3},{12}8h[8:1],
{24}2x,3x,{12},7h[8:1],{24}3x,4x,{12},6w2[8:1],{24}4x,5x,{3},{12}8bh[8:1],
{24}3x,4x,{12},1h[8:1],{24}6x,5x,{12},8-5[8:1]*-3[8:1],{24}3x,4x,{3},{12}1h[8:1],
{24}6x,5x,{12},8h[8:1],{24}3x,4x,{12},1-4[8:1]*-6[8:1],{24}6x,5x,{3},{12}8h[8:1],
{24}3x,4x,{12},1h[8:1],{24}6x,5x,{12},8-5[8:1]*-3[8:1],{24}3x,4x,{3},{256}4bxV62-8b[4:3],
5bxV37-1[4:3],
E
