&title=Cutter
&artist=EmoCosine
&first=-0.283
&des=心白-HW
&des_5=心白-HW
&lv_5=13+
&inote_5=(160){4},,,,6h[4:1],
E8/B7,4h[8:1],E2/B2,
5h[4:1],E7/B6,3h[8:1],B3/B4,
Ch[2:3],E2/B1,,B4/E4,
,B2/E3/B3,{2}B8/B1/E8/E2/E1,
{4}1>6[4:3],7,{16}8,,,8,,,{8}8,
{4}8<3[4:3],2,{16}1,,,1,,,{8}1,
{4}1pp6[4:3],7,{16}8,,,8,,,{8}8,
{4}8qq3[4:3],2,{16}1,,,1,,,{8}1,
1xq5V72[8:5],,,,,,,8xp4[4:1],
,,,2x-7v4[8:3],,,,,5xh[4:1],
,,2xh[8:1]/B6,,7xh[8:1]/B3,,C,
3h[8:1],{16}8,7,{8}6h[8:1],{16}1-5-7[4:1],2,{8}3h[4:1],1,,,{4}8x-4[8:1],
{8}8,{16}1,2,3,4,{8}5/6,3/7,8/1,
{4}1-5[8:1],{8}1,{16}8,7,6,5,{8}4/3,6/2,{16}1/8,7/2,
{4}3/6<1[8:1],{8}6,{16}5,4,3,2,{8}1/8,7/2,3/6,
{4}6/3>8[8:1],{8}3,{16}4,5,6,7,{8}8/1,2/7,6/3,
E4,{16}5,5,{8}B3,{16}5,5,{8}B2,{16}5,5,{8}E2,5,
E6,{16}1,1,{8}B6,{16}1,1,{8}B7,{16}1,1,{8}E8,1,
{16}8,1,8,1,8,1,8,1,{32}8,7,6,5,4,3,2,1,8,7,6,5,4,3,2,1,
{2}8xv5[8:1]*v3[8:1],{8}4-7[8:1]*-1[8:1],5/3,{4}4,
8xh[2:3],{8}1x,{16}B1,E3,,C,,E7,{8}B5,C,
{48}1x,E2,B2,B3,{12}E4,{48},,,,1x-4-2-5[16:5],E1,B8,B7,{6}E7,1x,{12},{4}8b,
1xh[1:1],{8}8x,{16}B8,E7,,C,,E3,{8}B4,C,
7xv4[8:1],{16}1,1,{8}7-1[8:1],3-5[8:1],7-3b[8:1],3-7b[8:1],{4}7,
1xh[8:7],{8}8x,{16}B8,E7,,C,,E3,{8}B4,C,
1-5[8:1],{16}8,8,{8}1-3[8:1],8-4[8:1],1-6-2b[4:1],8,{4}1,
8xh[8:7],{8}1x,{16}B1,E3,,C,,E7,{8}B5,C,
1/8,{16}2,3,{8}4,{16}7,6,{8}5,4/5,{4}2bx/7bx,
{8}7-5[8:1],{16}8,1,{8}7/2,2-4[8:1],{16}1,8,{8}7/2,7-5[8:1],8,
7/1-5[8:1],2,1-3[8:1],8-4[8:1],1-5[8:1],8-6[8:1],1,8,
2-4[8:1],{16}1,8,{8}2/7,7-5[8:1],{16}8,1,{8}2/7,2-4[8:1],1,
2/8-4[8:1],1,8/2-6[8:1],1-7[8:1],2-4[8:1],1-5[8:1],2bx,1,
3-1[8:1],{16}4,5,{8}3/6,6-8[8:1],{16}5,4,{8}3/6,3-1[8:1],4,
3/5-1[8:1],6,5-7[8:1],4-2[8:1],5v8[8:1],4v1[8:1],5,4,
{12}7,7,7,4,4,4,5,5,5,2-6[8:1],,,{1}2b/4pp4[2:1]*qq4[2:1],
{4}8/3q7[4:1],7V13[4:1],3v8[4:1],8>5[4:1],
5qq2[8:3],6,{8}8,8,{4}7/1,
8q4[4:1],4-6<7[4:1],7q3[4:1],3qq1[4:1],
1>5[4:1],5,{8}1,1,{4}2/8,
1-7[8:1],5-7[8:1],4-7[8:1],3-7[8:1],
2-7[8:1],4-7[8:1],{8}1,1,{4}2,
{12}8x,7x,6x,2x,3x,4x,7x,6x,5x,1x,2x,3x,
{4}5x/4x,7x/B4/B3,2x/E6/A5/D6,8x/Cf,
{8}2b,{16}6,5,{8}6,{16}3,4,{8}2,{16}6,5,{8}7,{16}2,4,
{8}3,{16}6,5,{8}7,{16}3,4,{8}2,{16}7,5,6,4,5,3,
{8}6,{16}4,5,{8}3,{16}6,5,{8}6,{16}3,4,{8}2,{16}6,5,
{8}7,{16}3,4,{8}3,{16}6,5,{8}7,{16}2,4,3,5,4,6,
{8}3b,{16}6,6,{8}4,{16}6,6,{8}5,{16}6,6,{8}4,{16}6,6,
{8}3,{16}2,2,{8}6,{16}2,2,{8}5,{16}2,2,{8}4,{16}2,2,
{8}5,{16}6,6,{8}7,{16}6,6,{8}5,{16}4,4,{8}5pp5-8b[8:5]*qq3v5-7>8b[8:5],{16}4,4,
,,,,,,,,,,,,{4}1-3b[8:1],
{8}1-7b[8:1],{16}6x,6x,{8}1>3b[8:1],{16}5x,5x,{8}1<7b[8:1],{16}4x,4x,{8}1-3b[8:1],{16}5x,5x,
{8}1-7b[8:1],{16}6x,6x,{8}1>3b[8:1],{16}5x,5x,{8}1<7b[8:1],{16}4x,4x,{8}1-4b[8:1],{16}5x,5x,
{8}1-6b[8:1],{16}6x,6x,{8}1>3b[8:1],{16}5x,5x,{8}1<7b[8:1],{16}4x,4x,{8}1-3b[8:1],{16}5x,5x,
{8}1-7b[8:1],{16}6x,6x,{8}1-5b[8:1],{16}5x,5x,{8}1,6x,{4}4bx/7bx-5b[8:1],
{8}7b-1b[8:1],{16}2x,2x,{8}7b<5b[8:1],{16}3x,3x,{8}7b>1b[8:1],{16}4x,4x,{4}7/2bx-4b[8:1],
{8}2b-8b[8:1],{16}7x,7x,{8}2b>4b[8:1],{16}6x,6x,{8}2b<8b[8:1],{16}5x,5x,{4}2,
{8}1h[8:1],{16}5,5,{8}2h[8:1],{16}6,6,{32}3,4,5,6,7,8,1,2,3,4,5,6,7,8,1,2,
{2}3/Cfh[4:3],{4}1-5[8:1],1b,
7h[4:3],{32}E3,B3,,,,,,,,,,,,,,,B4,E5,,,,,,,{4}2h[4:3],
{32}D6,A5,,,,,,,,,,,,,,,E7,B6,,,,,,,{4}6h[4:3],
{32}B4,E5,,,,,,,,,,,,,,,D4,A4,,,,,,,{8}3h[8:1],
{16}5,5,{8}2h[8:1],{16}4,4,{32}D5,A5,D6,A6,,,,,{4}1x/7x,
6x/A1/E2/A2,4x/A1/E2/A2,5x/A1/E2/A2,6x/A1/E2/A2,
3x/A8/E8/A7,5x/A8/E8/A7,6x/A8/E8/A7,4x/A8/E8/A7,
{16}2,2,4,4,3,3,5,5,4,4,6,6,5,5,7,7,
{2}6b<4b[4:1],{32}A1,E1,E8,A7,,,,,A5,E5,E4,A3,,,,,{2}1bh[4:1]/7bh[4:1],
{16}3/4,,,5/6,,,{8}3/7,
{2}3bh[4:1]/7bh[4:1],{16}5/6,,,3/4,,,{8}2/6,
{2}2bh[4:1]/6bh[4:1],{16}7/8,,,8/1,,,{8}1/2,
{48}A2,B2,C,B6,{12}A6,{24},,,,,{8}8qq4[4:1],{2}3v1[8:1],
{8}5h[8:1],1,6h[8:1],2,{16}7h[8:1]/3h[8:1],,,7h[8:1]/3h[8:1],,,{8}7h[16:1]/3h[16:1],
4h[8:1],6,3h[8:1],5,{16}4h[8:1],,,3h[8:1]/5h[8:1],,,{8}6h[16:1]/2h[16:1],
5,5,6/8,6,4/7h[16:1],7h[16:1],{4}1-3-5v2b[2:1]/8-6-4v7b[2:1],
{8},,,,,8/1,{4}1b/8b,
{8}5/2-5[8:1],{16}3,4,{8}2,6,{16}7-4-8[4:1],4,{8}8,3/7,2,
1>4[8:1],{16}7,7,{8}1,8,1-6[8:1]/5-2[8:1],4/8,{4}1/5,
{8}3/7-4[8:1],{16}6,5,{8}7,3,{16}2-6p1[4:1],5,1,6,{8}2,7,
{48}8b-4[8:1],7x,6x,5x,,,,,,,,,{8}8/5pp1[8:3],6,4xv2[8:1],3x,{4}4bx,
{8}3-6[8:1],8-5[8:1],3,8,{16}4,6,3,5,2,4,3,5,
{8}4-1[8:1],6,4-2[8:1],6V48[4:1],4,6,{4}Cf,
{16}1,7,2,7,3,7,4,7,5,7,6,7,8,7,{8}1,
2/8,{16}3,5,{8}4,3/6,4/5,8/1,7b/2,7/2b,
{2}2v4[8:3],{8}B7,,,5pp7<6[8:5],
,,,B2,,B3,,,{2}3>2-5[8:3],
{8}E7,,,6pp4[8:5],
,,,E3,,E4,,,{4}4/3h[2:1],
2,{16}4,,,5,{8}4,6,
{4}5/6h[2:1],7,{16}5,,,4,{8}5,3,
6/3h[8:1],6,2/7h[8:1],2,{16}1,8,2,7,{8}1w5[8:1],2/8,
{2}1b,{8}3-7[8:1],6-2[8:1],3x,6x,
E
