&title=妖々跋扈 ~ Who done it!
&artist=上海アリス幻樂団
&first=0.02
&des=东方赢了
&lv_5=14
&inote_5=(155.99)
{1},
{4}8h[4:3]/1b,1,2,2,
{8}3h[2:1]/7,7,6,6,{16}5,4,5,4,6,3,6,3,
{8}7b^5[8:1],2,7,1,2,34,5,46,
{16}7,8,7,,61,,3,4,2-4[8:1],,5,,2,,6,,
{8}5^2[8:1],7,5,8,7,61,2,53,
{16}4,6,4,6,3,5,3,5,2-8[8:1],,2,,5,,6,,
{8}7-4[8:1],1,7,2,{16}3,4,3,,62,,5h[8:1],,
{16}3,4,3,4,3,,6,4,5^8[8:1],,3,,5,,2,,
{8}1-5[8:1],7,1,8,{16}6,5,6,,37,,45,,
{16}6,4,6,4,5,3,5,3,5,3,6,2,7V53[16:3],,8,,
{8}1h[8:3]/7b,,,4h[4:1],,3h[8:1],5h[8:1],4h[8:1],
{8}7h[8:3],,,1h[4:1],,6h[8:1],2h[8:1],5h[8:1],
{8}3h[8:3],,,4h[4:1],,2h[8:1],3h[8:1],1h[8:1],
{8}8h[8:1],2h[8:1],7h[8:1],3h[8:1],6h[2:1],,,,
{8}5h[8:3],,,7h[4:1],,8h[8:1],6h[8:1],1h[8:1],
{8}5h[8:3],,,2h[4:1],,6h[8:1],4h[4:1],,
{8}7h[8:3],,,1h[4:1],,6h[8:1],2h[8:1],5h[8:1],
{4}4w8[4:1],,,26,
{16}3b/5b,,4,,57,,6,5,,5,6,,47,,,,
{16}46,,3,,24,,3,4,,4,3,,25,,6,5,
{4}7^4[4:1],4^1[4:1],1^6[4:1],6,
{8}2-5[8:1],2,6-1[8:1],6,4w8[8:1],,,,
{16}2b/6b,,3,,45,,6,5,,5,7,,48,,7,,
{16}64,,3,,24,,3,4,,4,2,,15,,2,4,
{4}3V57[4:1],7V13[4:1],3,{16}6,,4,5,
{8}36,36,27,27,1-5[8:1]/8-4[8:1],,1b/8b,,
{8}2b/7b,6,5,43,2,34,5,46,
{16}3,4,2,5,1,6,8,7,1,7,2,6,3,5,4,5,
{8}3b,24,3,46,5,34,2,18,
{16}7,1,6,2,5,3,4,3,5,3,6,2,7,1,8,1,
{8}7b,26,5,34,2,34,5,46,
{16}5,4,6,3,7,2,8,1,8,2,7,3,6,4,6,5,
{8}7b,46,3,24,3,46,5,34,
{16}2,4,2,4,3,5,3,5,4,6,4,6,5,7,5,7pp6[16:25],
{1}5bqq6[2:3],
{1},
{2}7p5[8:7],2,
{8}1h[4:3],,6,6,7,7,8,,
{4}8qq4[8:7],,2,2,
{8}1pp4[4:3],,,,7,,6,6,
{8}5,5h[4:1],4,3,6,6h[4:1],5,4,
{16}3,4,3,4,2,5,2,5,{24}1,2,3,7,6,5,{32}1,2,3,4,8,7,6,5,
{2}4/1h[2:1],
{16}6b,,27,,3,,6,4,7,,35,,2,4,3,4,
{16}2^5[8:1],,5,5,2^7[8:1],,6,6,2-6[8:1],,5,5,2,,7,,
{16}2,4,3,5,4,6,5,7,2,4,3,5,4,6,5,7,
{16}2,4,3,7,5,6,3,4,2,6,5,7,1,8,2,7,
{16}3b,,46,,7,,3,5,2,,46,,7,5,6,5,
{16}7-5[8:1],,4,4,7-1[8:1],,3,3,7-3[8:1],,4,4,7,,2,,
{16}7,5,6,4,7,3,1,2,8,2,7,3,5,4,6,3,
{16}7,5,6,4,5,3,4,2,8,5,7,4,6,3,5,2,
{16}6b,,25,,3,,6,4,7,,35,,2,5,3,4,
{16}2^5[8:1],,5,5,2^7[8:1],,6,6,2-6[8:1],,5,5,2,,7,,
{16}2,4,3,5,4,6,5,7,1,4,2,5,3,6,4,7,
{16}2,4,3,7,5,6,3,4,2,5,1,8,2,7,3,6,
{16}4b,,35,,2,,6,4,7,,35,,2,4,3,5,
{16}26,,7,5,6,2,4,3,8,,6,5,6,3,4,2,
{16}5,1,6,1,7,1,8,1,8,2,8,3,8,4,7,3,
{16}6,2,5,1,6,2,7,3,{32}4,5,6,7,8,1,2,3,4-8[8:1],5,6,7,8,1,2,3,
{1}4b>5[8:29],
{1},
{1},
{1},
{8}2h[4:1],,4h[4:1],,3,5h[4:1],,4q5[4:3],
{8},,6,,7h[4:1],,,,
{8}7,6,5,4,6,5,4,3,
{16}5,,4,,3,,2,,1,8,2,7,{32}3,4,5,6,7,8,1,2,
{16}3b,,46,,7,5,8,,7,7,5,6,3,4,3,5,
{16}4,,6,5,74,,,2,34,,56,,78,,21,,
{16}8,1,7,2,6,3,5,4,7,1,6,2,5,3,4,3,
{16}6,5,7,3,4,2,6,5,8,3,4,1,6,5,8,3,
{16}7b,,26,,1,5,2,,3,3,4,2,5,3,6,4,
{16}7,2,4,3,25,,,7,56,,34,,12,,78,,
{16}6,5,7,4,8,3,1,2,6,4,7,3,8,2,8,1,
{32}2/8b,3,4,5,6,7,8,1,2/4b,3,4,5,6,7,8,1,2/8b,3,4,5,6,7,8,1,2/4b,3,4,5,6,7,8,1,
{2}8b/2h[2:1],
{1}5b,
E
