&title=Dysthymia
&artist=a_hisa
&first=2.9
&des=Hinata
&lv_5=14
&inote_5=(95)
{4}5<4[4:5],,,,2h[2:1],,,,8<5[4:2],,4>1[4:2],,5p8[4:2],,1q3[8:4],,,,
{16}6,5,4,3>4[16:5],4,5,6,7,7h[4:1],,,,,,,,
3,4,5,6<5[16:5],5,4,3,2,2h[4:1],,,,,,,,
4,3,2,1<2[2:1],8,7,6,5,5h[4:1],,,,,,,,
5,6,7,8,1,2,3,4<8[8:1],3x/7x,6x/2xq3[8:1],1x/5x,4x,,2bx,,,
{16}7,,6,3q5[16:3],,28,,3,,7>5[4:1],7,6,,5x,4x,3x,2x,,18,2<4[4:1],,8,7,6h[16:4],,,,,,
{16}3p2[16:3],7,2,6h[16:3],,,,,,,,7p6[16:3],3,6,2h[16:2],,,,,
{16}18,,1,8,,2,7,2<4[4:1],8,7,6,5,,1,8,7,
{16}6,,3,6p4[16:3],,71,,6,,2<4[4:1],2,3,,4x,5x,6x,7x,,81,7>5[4:1],,1,2,3h[16:4],,,,,,
{16}6p5[16:3],2,7,3h[16:3],,,,,,,,3q4[16:3],,,6h[16:3],,,,,7,7,7,7,3,3,3,3,
{32}6,2,6,2,6,2,6,2,
{48}7,6,5,4,1,2,3,4,1,8,7,6,
{16}5,,,3b/7b,,,1,7,
{32}2,3,4,5,6,7,8,1,7/2,6,5,4,3,2,1s5[8:1],8,7x,,
{16}2x,8x,1x,,,7,5,
{32}6,4,6,3,6,2,6,1,6,8,6,7,6,5,4w8[16:1],3,2,,,,,,4b,,
{16},,8,1,
{32}7,6,5,4,3,2,1,8,2/7,3,4,5,6,7,8,1,2,,
{16}3/8,2,1/6,8,7,6,,
{12}2b/4b,7b/5b,1b/8b,2bw6[4:1]/4b,5b/6b,1b/8b,2b,,,,,,
{16}2,1<3[4:1],8,7h[8:1],,1,,,8,7>5[4:1],6,5,,5,6,7,,1x,4x/8[16:1],3x/7x,2x/6x,1x/5x,8x/4x>6[4:1],,
{16}1xh[16:3],,,,,,1,,
{16}1<3[4:1],,6,,6h[8:1],,,,
{16}7,7,7,7,26,26,26,26,51,51,51,51,5x/1x,5x/1x,5x/1x,5x/1x,
{64}1x-3-6[8:1],8,7,6,5,4,3,2,1x-5b[8:1],,,,,,,,
{16}1b/7b>4[4:1],,1x,,7xV58b[4:1],,8x,,7b,,4,,3V14[4:1],,2,,8b-5b[8:1],,6,,8,,3,,4x/2b,5b/3x,6x/4b,7b/5x,
{16}8-6-3[8:1],,1-4b[8:1],,8b/2b<5[4:1],,1x,,2xV48b[4:1],,1x,,2b,,5,,6V85[4:1],,7,,1b-4b[8:1],,3,,1>3[12:1]*<6[12:1],,7,,1b,,,,
{16}3h[8:1]/7x,7x,7x,,2h[8:1]/6x,6x,6x,,1h[8:1]/5x<8[12:1],5x,5x>2[12:1],,5b,,5b,,
{24}7,,7,8,,8,1-7[12:1],,1,2-6[12:1],,,1-5[12:1],,,2-4[12:1],,,1,,,2,,,
{16}5xh[8:1],4x,4x,,6xh[8:1],3x,3x,,5xh[8:1]/4x>1[12:1],4x,4x<7[12:1],,4b,,4b,,
{16}2h[8:1],,8,7,6h[8:1],2,3,4,
{32}8,5,8,4,8,3,8,2,
{64}8x,7,6,5,4,3,2,1,8,7,6,5,4,3,2,1,
{1}8b-4-1-6-2>8[4:6],
{16},,,,,,,,,,,,,,,,
{4}1pp4[4:3],,6,,5pp8[4:3],,2,,1b,
{4},,1h[4:1]/5h[4:1],
{48},26,37,48,51,6,7,8,1,2,3,4,5,,,
{32},,4x/7x,,6,5,6,5,6,5,
{64}A7,D8,A8,,
{32}2,1,2,1,2,1,
{64}A3,D4,A4,,
{32},,8x/3x,,6qq7[8:1],4,7,,5,,,,3,,3,,,,
1x/7x,,3pp2[8:1],5,2,,4,,,,6,,6,,,,
{32}2x/5x,,,,7,8,7,8,7,8,7,8,
{64}E7,B6,B5,E5,,,,,
{32}7x/4x,,,,2,1,2,1,2,1,2,1,
{64}E3,B3,B4,E5,,,,,
{16}75,6,5,42,3,2,18,7,
{64}1b,2,3,4,,,,,7b,6,5,4,,,,,2b,3,4,5,,,,,1b,8,7,6,,,,,
{32}2x/5x,,,,3,4,3,4,3,4,3,4,
{64}E3,B2,B1,E1,,,,,
{32}7x/4x,,,,6,5,6,5,6,5,6,5,
{64}E7,B7,B8,E1,,,,,
{16}1bx/3b,8b/2b,7b/1b,6b/8b,,5b/3b,,8b/1b,,7b/2b,6b/3b,4b/5b,
{32},,75,,64,,53,,,,2,4,3,5,4,6,5,7,,,
35,,46,,,,7,5,6,4,5,3,4,2,,,18,,,,
{32}2b/6b,,,,7,8,7,8,7,8,7,8,7,8,7,,
{64}1b,2,3,4,,,,,7b,6,5,4,,,,,2b,3,4,5,6>7[16:7],7,8,1,2,3,4,5,6,,,,
{8},,,,,5b-1-5pp6[8:13]*-1-5qq4[8:13],
