&title=Horizon Blue
&artist=Nothing But Requiem ft. Aikapin & Chiyoko
&first=0.12
&des=EndSK20 vs H2g
&lv_5=14
&inote_5=(200){4},{16},,,,,,,,,,,,,,,,1x,
2x/8x,3x/7x,6x/4x,{2}5bxs1z5[2:5],
{1},,{4},,{8}6b,
6,4,4,
7,7,{16}2,3,4,5,8-3[8:1],7,6,5,{4}8b-5[6:1],
(66.67)8b-6z2[16:3],6h[6:1],1h[6:1]/6^4[12:1],2h[6:1]/6qq7[6:1],
6/3h[6:1],{12}4/8>3[12:1],,7,{4}6h[6:1]/8-5[12:1],7h[6:1]/8pp3[4:1],
{12}8/6qq7[6:1],{24},,,,,,,,2,8,{6}1q5[12:1],{12}8,7/1p4[12:1],,8,
{6}3/1q6[9:1],{12}2,1/5<1[9:1],,4,{6}5/1-6[12:1],{12}3,1/4pp7[4:1],,3,
4/1pp4[6:1],{24},,,,,,,,8,8,{12}7qq8[6:1],5/4,6/3,7/2,{24},,1,1,
{12}8/2qq3[6:1],7/3,6/4,2/5,{24},,6,6,{12}7/5,6/4,3/5,4/2qq7[4:1],1/8,1/8,
2/6qq3[4:1],{24},,,,,,,,1,1,{12}2qq3[6:1],{24}4,3,{12}5,2/6,{24},,7,7,
{12}6qq7[6:1],{24}4,5,{12}3,6/2,1,{24}2,2,8,1,{12}7h[12:1],{24}5,6,{12}4h[12:1],5h[12:1],{24}2,2,
8,1,{12}7h[12:1],,1/8<4[8:1],2/7,6/3,1/8qq1[6:1],2,3,8/2V46V82[4:1],3,4,
{2}2/8<8[4:1],{48}A2,E3,E4,A4,A8,E8,E7,A6,A1,B1,C,B5,{4}8x<5[12:1],
{12}1/8qq1[6:1],2,3,1/8<3[16:3],2,3,{6}8/4V68[8:1],{12}2,4/1V35[8:1],,2,
1/8pp7[6:1],7,6,5/8>7[24:5],,5,{4}8/6h[6:1],{48}B8,C,B4,A4,A7,E7,E6,A5,A1,E2,E3,A3,
{12}5x<8[12:1],4/6,7/3,5/4pp3[6:1],3,2,{6}1/4V68[8:1],{12}2,4/3>8[12:1],,4,
3/4qq5[6:1],5,6,4/5<4[24:5],6,7,{4}5/8h[6:1],{48}A1,B1,C,B5,A2,E3,E4,A4,A8,E8,E7,A6,
{12}1xpp4[6:1],{24}4,2,{12}5,1/5qq1[6:1],6,7,5/8pp3[6:1],7,6,8/5,,5,
5pp8[6:1],{24}4,6,{12}3,5/1qq5[6:1],2,3,1/4,3,2,{48}B1,C,B5,A5,A8,E8,E7,A6,A2,E3,E4,A4,
{12}8xqq1[6:1],{24}4,7,{12}3,8/2>5[12:1],3,3,1/2pp1[6:1],8,{24}7,7,{12}2/6<1[12:1],5,5,
{8}6/2,4,{24}5/3,5/3,6/2,2/6,7/1,1/7,(200)2x/8w4[2:1],3x,4x,5x,{4},,,{16},
{48},{16}4x,
3x,2x,1x,8x,7x,6x,5x,
{4}8xh[4:1],2h[4:1],4<7[16:3],1xh[2:1],
{8},,6h[8:1],4h[8:1],{4}8xh[4:1],3h[4:1],
1<6[16:3],5xh[2:1],{16}4x,3x,2x,1x,8x,7x,6x,5x,
{4}2xh[4:1],7h[4:1],1h[4:1],4xh[4:1],
2h[4:1],6h[4:1],1x^4[8:2],4^7[8:2],
7,8x>3[4:1],3<6[4:1],8,
1xh[4:1],7h[4:1],2>5[16:3],8xh[2:1],
{8},,4h[8:1],6h[8:1],{4}2xh[4:1],7h[4:1],
1>4[16:3],5xh[2:1],{16}6x,7x,8x,1x,2x,3x,4x,5x,
{4}7xh[4:1],1h[4:1],6h[4:1],2xh[4:1],
8h[4:1],4h[4:1],7x<4[4:1],4>1[4:1],
1<6z2[8:5],4xs8[8:3],,,
3xh,
6/5,6/5,8xh,
6/5,{8}4,5,{4}1xh,4/3,
4/3,{8}6xh,4/3,{4}4/3,{8}5,4,
{4}5x/7xh,5/7-5[8:1],4,4x/2xh,
4/2-4[8:1],{8}5,5,{4}5x/7xh,5/7-5[8:1],
4,{8}4x/2xh,2/4,{4}4/2-4[8:1],{8}5-1[8:1],6,
{4}5b<8[8:1],5b>2[8:1],5bq7[8:5],C,
,8x<5[8:1],8b>3[8:1],8b-4[8:1],
8bq1[16:9],C,{16},,,,,,,,8b/7b,
,,5b/4b,,,{8}1b/2b,{12}8b,3b,6b,5b,{48},,,,,{16}5b/4b,
,,{8}7b/8b,{12}1b,6b,3b,{2}4b<2[2:1],
{4},Cf,{16}4,5,6,7,8-4[8:1],1,2,3,
{4}4x/8b>3[8:1],8/6x-1[8:1],6/2x>5[8:1],{32}8x,7x,{16}6x,,,{4}4x/6x,
{8}3/4-1[8:1],5,{4}4/6x-1[8:1],6/3x-8[8:1],
3/4x<7[8:1],{32}1x,2x,{16}3x,,,8x,7,6,5,4x-8[8:1],3,2,1,
{4}8x/4x-7[8:1],4x>1[8:1],{48}4x-8[8:1]`A8,D8,A7,D7,A6,D6,,,,,,,{4}4x-1[8:1],
4x<7[8:1],{48}A1,D2,A2,D3,A3,D4,,,,,,,{8}4x/8x-4[8:1],4x/8,{4}4x/8,
{8}3,2,5x/1x-5[8:1],1/5x,{4}1/5x,{8}7x/3x,{16}7/3,2/6,
{4}5b/1b-6[8:1],1/3x-8[8:1],3/7x<4[8:1],{32}1x,2x,{16}3x,,,{4}6x/2x,
{8}7/5x-8[8:1],4,{4}5/3x-8[8:1],3/6x-1[8:1],
6/5x>2[8:1],{32}8x,7x,{16}6x,,,1x,2,3,4,5x-1[8:1],6,7,8,
{4}1x/5x-2[8:1],5x<8[8:1],{48}5x-1[8:1]`A1,D2,A2,D3,A3,D4,,,,,,,{4}5x-8[8:1],
5x>2[8:1],{48}A8,D8,A7,D7,A6,D6,,,,,,,{8}1h[8:1],{32}6x,5,{16}4,{8}2h[8:1],{32}7x,6,{16}5,
{8}3h[8:1],{32}8x,7,{16}6,{4}4b-6-1-5-7[8:7],,,C,
,,C,
{8},,5,4,7b/3x,3b/7x,{4}5b/1x-5[8:1],
1bw5[8:1],1b,{24}2x,3,4,7x,6,5,{4}1b,
3x/4-8[8:1],6/4x<6-1[16:3],{8}2x,{16}2,3,{4}4b-8[8:1],
6x/4<6-1[16:3],{8}3x,{16}3,4,{4}5b-2[8:1],5x/8bw4[8:1],
8b,{8}2x/6,2/6x,3x/5,3/5x,4x/6,4/6x,{4}7/5b-2[8:1],
{32}8bx-3[8:1],7x,{16}6x,{32},,,,5bx,6x,{16}7x,,,7x/5,,,6/4x,,,{8}3/5,3/5,2/4,{4}2/4b-7[8:1],
{32}1bx-6[8:1],2x,{16}3x,{32},,,,4bx,3x,2x,,,,,,{8}3x/5,3x/5,6x/4,6/4x,{16}7,5,7,5,
{8}8x/4x,8/4,5/6,5/6,7/3,2/6,1x/5x,1/5,
3/4,3/4,2/6,3/7,{16}4b/8b,,,4x/5bx,,,{8}3x/6b,
2b-5[8:1]`7b-4[8:1],1b/8x,{4}7b/2bqq7[0.9##0.8999],{12},,,,,,(66.67)2/6qq3[4:1],
5,5,6,8,8,1pp4[4:1],2,2,1/5pp8[4:1],6,6,
5V31[8:1],3,4,5-7-3[8:1],7,6,{6}5/1V35[8:1],{12}8,1/5,6,{24}7,7,
{12}4/8V64[8:1],3/7,2/6,8/1-5[8:1],2,{24}3,3,{12}1/2V48[6:1],3,3,{24}2/7,7,{12}7,{24}6,6,
{12}7/1>1s5[0.9##1.35],3/4,2/5,1/6,7,(200)8z4[8:3],{4},,,{16},,{24},{48}1,
,,2,,,{24}3,{48},4,,,8,,,1,,,{24}2,{48},3,,,4/8,,,5/1,
,,{24}6/2,{48},7/3,,,{24}4b/8b,,,3x/7x,{48},2/6,,,{12}5/1-5[8:1],{24},,,,1x/7-4-6-1[8:3],,,6,,,{12}7x/2-5[8:1],
,,{6}2x,{12},8x/4x,{24},7/3,,,{12}2x-5[8:1]`6x-1[8:1],,,2x/6x,
{48},,,,,,,,3x/8x-4[8:1],,,2/7,,,{24}6/1-3[8:1],,,{12}8x-6[8:1],{24},1x-5[8:1],,,8x-4[8:1],,,1x-3[8:1],,,{12}8x,
{24},1x,,,{6}8b<5[8:1],{48},,,,8xw4[8:1]`D1,A1,D2,A2,D3,A3,,,,,,,,B8,C,B4,{12}A4,,1b>4[8:1],
{48},,,,,,,,1xw5[8:1]`D1,A8,D8,A7,D7,A6,,,,,,,,B1,C,B5,{6}A5,8b<5[8:1],{48},,,,8xw4[8:1]`D1,A1,D2,A2,
D3,A3,,,,,,,,B8,C,B4,{12}A4,{96},,,,,,,,1b,,,2x,,,{48}3x,{96},4x,,,{24}8b,{96},,,,,,,,2b,,,3x,,,{48}4x,{96},5x,,,{24}7b,{96},,,,,,,,3b,,,4x,,,{48}5x,
{96},6x,,,7x,,,8x,,,{48}1x,{96},2x,,,{24}4x/3x,,,4,,,{12}4x/2,{24},4,,,4x/1w5[8:1],,,4,{96},,,,,,,,1x<3[8:3],,,C,,,{48},
{96},,{4},{16},,{64},{192},{12}8bx,{24},8bx,,,5x/6,,,5,,,{12}5x/7,
{24},5,,,5x/8w4[8:1],,,5,{96},,,,,,,,8x>6[8:3],,,C,,,{48},{96},,{4},,{16},,{64},{192},{6}1b/2b,
{48},4b/5b,,,,,,,,,{24}8b/7b,,,{12}1b,6b,3b,4b,
{48},,,,,4b/5b,,,,,,,,,{24}2b/1b,,,{12}8b,3b,6bz2-4-6-8[12:13],{3}5b-7-1-3-5-7[12:11],
{6},,,,,,,7/1b,
5b/4,3b/8,{12}1b/2b,1b/2b,1b/2b,3/8b,
,5/4b,,6b/1,,7b/8b,7b/8b,7b/8b,{24}1b,{96},,,,,,,,7,,,6,,,{48}5,{96},4,,,{12}1b,
{96},,,,8,,,7,,,{48}6,{96},5,,,{32}2b,3bxh,4bxh,5bxh,6bxh,7bxh,8bxh,1bxh,{48}2bpp5[16:7]/7b,3b/6b,4b/5bpp8[16:6],,,,,,,,,,,,,,,,,,,,,,,,,,,,,,,,,,Cf,,,,,,,,,,,,,,,,,,,,,,,,
&inote_6=(200){4},{16},,,,,,,,,,,,,,,,1x,
2x/8x,3x/7x,6x/4x,{2}5bxs1z5[2:5],
{1},,{4},,{8}6b,
6,4,4,
7,7,{16}2,3,4,5,8-3[8:1],7,6,5,{4}8b-5[6:1],
(66.67)8b-6z2[16:3],6h[6:1],1h[6:1]/6-4[12:1],2h[6:1]/6qq7[6:1],
6/3h[6:1],{12}4/8>3[12:1],,7,{4}6h[6:1]/8-5[12:1],7h[6:1]/8pp3[4:1],
{12}8/6qq7[6:1],{24},,,,,,,,2,8,{6}1q5[12:1],{12}8,7/1p4[12:1],,8,
{6}3/1q7[8:1],{12}2,1/5V71[9:1],,4,{6}5/1-6[12:1],{12}3,1/4pp7[4:1],,3,
4/2v1[48:5],{24},,,,,,,,8,8,{12}7qq8[6:1],5/4,6/3,7/2,{24},,1,1,
{12}8/2qq3[6:1],7/3,6/4,2/5,{24},,6,6,{12}7/5,6/4,3/5,4/2qq7[4:1],1/8,1/8,
2/6qq3[4:1],{24},,,,,,,,1,1,{12}2qq3[6:1],{24}4,3,{12}5,2/6,{24},,7,7,
{12}6qq7[6:1],{24}4,5,{12}3,6/2,1,{24}2,2,8,1,{12}7h[12:1],{24}5,6,{12}4h[12:1],5h[12:1],{24}2,2,
8,1,{12}7h[12:1],,1/8<4[8:1],2/7,6/3,1/8qq1[6:1],2,3,8/2V46V82[4:1],3,4,
{2}2/8<8[4:1],{48}A2,E3,E4,A4,A8,E8,E7,A6,A1,B1,C,B5,{4}8<5[12:1],
{12}1/8qq1[6:1],2,3,8/1<5[8:1],2,3,{6}1/4V68[8:1],{12}2,4/1V35[8:1],,2,
1/8pp7[6:1],7,6,5/8>7[24:5],,5,{4}8/6h[6:1],{48}A8,A1,A2,A3,A4,A5,A6,A7,A8,A1,A2,A3,
{12}5<8[12:1],4/6,7/3,5/4pp3[6:1],3,2,{6}1/4V68[8:1],{12}2,4/3>8[12:1],,4,
3/4qq5[6:1],5,6,4/5<4[24:5],6,7,{4}5/8h[6:1],{48}A5,A6,A7,A8,A1,A2,A3,A4,A5,A6,A7,A8,
{12}5x/1xpp4[6:1],{24}4,2,{12}5,1/5qq1[6:1],6,7,5/8pp3[6:1],7,6,8/5,,5,
5pp8[6:1],{24}4,6,{12}3,5/1qq5[6:1],2,3,1/4,3,2,{48}B1,C,B5,A5,A8,E8,E7,A6,A2,E3,E4,A4,
{12}8qq1[6:1],{24}4,7,{12}3,8/2>5[12:1],3,3,1/2pp1[6:1],8,{24}7,7,{12}2/6<1[12:1],5,5,
{8}6/2,4,{24}5/3,5/3,6/2,2/6,7/1,1/7,(200)2/8w4[2:1],3,4,5,{4},,,{16},{48},{16}5x/4x,
3x,2x,1x,8x,7x,6x,5x,
{4}8xh[4:1],2h[4:1],4<7[16:3],1xh[2:1],
{8},,6h[8:1],4h[8:1],{4}8xh[4:1],3h[4:1],
1<6[16:3],5xh[2:1],{16}4x,3x,2x,1x,8x,7x,6x,5x,
{4}2xh[4:1],7h[4:1],1h[4:1],4xh[4:1],
2h[4:1],6h[4:1],1x^4[8:2],4^7[8:2],
7,8x>3[4:1],3<6[4:1],8,
1xh[4:1],7h[4:1],2>5[16:3],8xh[2:1],
{8},,4h[8:1],6h[8:1],{4}2xh[4:1],7h[4:1],
1>4[16:3],5xh[2:1],{16}6x,7x,8x,1x,2x,3x,4x,5x,
{4}7xh[4:1],1h[4:1],6h[4:1],2xh[4:1],
8h[4:1],4h[4:1],7x<4[4:1],4>1[4:1],
1<6z2[8:5],4xs8[8:3],,,3xh,
6/5,6/5,8xh,
6/5,{8}4,5,{4}1xh,4/3,
4/3,{8}6xh,4/3,{4}4/3,{8}5,4,
{4}5x/7xh,5/7-5[8:1],4,4x/2xh,
4/2-4[8:1],{8}5,5,{4}5x/7xh,5/7-5[8:1],
4,{8}4x/2xh,2/4,{4}4/2-4[8:1],{8}5-1[8:1],6,
{4}5b<8[8:1],5b>2[8:1],5bq7[8:5],C,
,8x<5[8:1],8b>3[8:1],8b-4[8:1],
8bq1[16:9],C,{16},,,,,,,,8b/7b,
,,5b/4b,,,{8}1b/2b,{12}8b,3b,6b,5b,{48},,,,,{16}5b/4b,
,,{8}7b/8b,{12}1b,6b,3b,{2}4b<2[2:1],
{4},Cf,{16}4,5,6,7,8-4[8:1],1,2,3,
{4}4x/8b>3[8:1],8/6x-1[8:1],6/2x>5[8:1],{32}8x,7x,{16}6x,,,{4}4x/6x,
{8}3/4-1[8:1],5,{4}4/6x-1[8:1],6/3x-8[8:1],
3/4x<7[8:1],{32}1x,2x,{16}3x,,,8x,7,6,5,4x-8[8:1],3,2,1,
{4}8x/4x-7[8:1],4x>1[8:1],{48}4x-8[8:1]`A8,D8,A7,D7,A6,D6,,,,,,,{4}4x-1[8:1],
4x<7[8:1],{48}A1,D2,A2,D3,A3,D4,,,,,,,{8}4x/8x-4[8:1],4x/8,{4}4x/8,
{8}3,2,5x/1x-5[8:1],1/5x,{4}1/5x,{8}7x/3x,{16}7/3,2/6,
{4}5b/1b-6[8:1],1/3x-8[8:1],3/7x<4[8:1],{32}1x,2x,{16}3x,,,{4}6x/2x,
{8}7/5x-8[8:1],4,{4}5/3x-8[8:1],3/6x-1[8:1],
6/5x>2[8:1],{32}8x,7x,{16}6x,,,1x,2,3,4,5x-1[8:1],6,7,8,
{4}1x/5x-2[8:1],5x<8[8:1],{48}5x-1[8:1]`A1,D2,A2,D3,A3,D4,,,,,,,{4}5x-8[8:1],
5x>2[8:1],{48}A8,D8,A7,D7,A6,D6,,,,,,,{8}1h[8:1],{32}6x,5,{16}4,{8}2h[8:1],{32}7x,6,{16}5,
{8}3h[8:1],{32}8x,7,{16}6,{4}4b-6-1-5-7[8:7],,,C,
,,C,
{8},,5,4,7b/3x,3b/7x,{4}5b/1x-5[8:1],
1bw5[8:1],1b,{24}2x,3,4,7x,6,5,{4}1b,
3x/4-8[8:1],6/4x<6-1[16:3],{8}2x,{16}2,3,{4}4b-8[8:1],
6x/4<6-1[16:3],{8}3x,{16}3,4,{4}5b-2[8:1],5x/8bw4[8:1],
8b,{8}2x/6,2/6x,3x/5,3/5x,4x/6,4/6x,
{4}8b-5[8:1],{48}8b-3[8:1],D8,A7,D7,A6,D6,,,,,,,8b,D1,A1,D2,A2,D3,,,,,,,{16}6b/4bx,,,7x/5,
,,{8}6/4x,3/5,3/5,{4}1b-4[8:1],{48}1b-6[8:1],D2,A2,D3,A3,D4,,,,,,,1b,
D1,A8,D8,A7,D7,,,,,,,{8}3b/5bx,3x/5,6x/4,6/4x,{16}7,5,7,5,
{8}8x/4x,8/4,5/6,5/6,7/3,2/6,1/5,1/5,
3/4,3/4,2/6,3/7,{16}4b/8b,,,4x/5bx,,,{8}3x/6b,
2b-5[8:1]`7b-4[8:1],1b/8x,{4}7b/2bqq7[0.9##0.8999],{12},,,,,,(66.67)2/6qq3[4:1],
5,5,6,8,8,1pp4[4:1],2,2,1/5pp8[4:1],6,6,
5V31[8:1],3,4,5-7-3[8:1],7,6,{6}5/1V35[8:1],{12}8,1/5,6,{24}7,7,
{12}4/8V64[8:1],3/7,2/6,8/1-5[8:1],2,{24}3,3,{12}1/2V48[6:1],3,3,{24}2/7,7,{12}7,{24}6,6,
{12}7/1>1s5[0.9##1.35],3/4,2/5,1/6,7,(200)8z4[8:3],,,,,,,,,,{16},,{24},{48}7/1,
,,2,,,{24}3,{48},4,,,8,,,1,,,{24}2,{48},3,,,4/8,,,5/1,
,,{24}6/2,{48},7/3,,,{24}4b/8b,,,3x/7x,{48},2/6,,,{12}5/1-5[8:1],{24},,,,1x/7-4-6-1[8:3],,,6,,,{12}7x/2-5[8:1],
,,{6}2x,{12},8x/4x,{24},7/3,,,{12}2x-5[8:1]`6x-1[8:1],,,2x/6x,
{48},,,,,,,,3x/8x-4[8:1],,,2/7,,,{24}6/1-3[8:1],,,{12}8x-6[8:1],{24},1x-5[8:1],,,8x-4[8:1],,,1x-3[8:1],,,{12}8x,
{24},1x,,,{6}8b<5[8:1],{48},,,,8xw4[8:1]`,D3,A2,D2,A1,D1,,,,,,,,B8,C,B4,{12}A4,,1b>4[8:1],
{48},,,,,,,,1xw5[8:1]`,D7,A7,D8,A8,D1,,,,,,,,B1,C,B5,{6}A5,8b<5[8:1],{48},,,,8xw4[8:1]`,D3,A2,D2,
A1,D1,,,,,,,,B8,C,B4,{12}A4,{96},,,,,,,,1b,,,2x,,,{48}3x,{96},4x,,,{24}8b,{96},,,,,,,,2b,,,3x,,,{48}4x,{96},5x,,,{24}7b,{96},,,,,,,,3b,,,4x,,,{48}5x,
{96},6x,,,7x,,,8x,,,{48}1x,{96},2x,,,{24}5x/3b,,,5,,,{12}5x/2[8:1],{24},5,,,5x/1w5[8:1],,,5,{96},,,,,,,,1x<3[8:3],,,B1,,,{48}C,
{96},B5,{4},{16},,{64},{192},{12}8bx,{24},8bx,,,4x/6,,,4,,,{12}4x/7[8:1],
{24},4,,,4x/8w4[8:1],,,4,{96},,,,,,,,8x>6[8:3],,,B8,,,{48}C,{96},B4,{4},,{16},,{64},{192},{6}1b/2b,
{48},4b/5b,,,,,,,,,{24}8b/7b,,,{12}1b,6b,3b,4b,
{48},,,,,4b/5b,,,,,,,,,{24}2b/1b,,,{12}8b,3b,6bz2-4-6-8[12:13],{3}5bh[4:5],
{6},,,,,,,7b/1,
5b/4,3b/8,{12}1/2,1/2,1/2,3/8b,
,5/4b,,6b/1,,7/8,7/8,7/8,{24}1b,{96},,,,,,,,7,,,6,,,{48}5,{96},4,,,{12}1b,
{96},,,,8,,,7,,,{48}6,{96},5,,,1b,,,2x,,,{48}3x,{96},4x,,,7b,,,6x,,,{48}5x,{96},4pp7[16:7],,,{12}1bq3[16:7],,,,,,,,,{6}Cf,
E
