&title=虚無さん
&artist=¿?shimon/25時、ナイトコードで。 × 鏡音レン
&first=0.608
&des=Kurage
&lv_5=14
&inote_5=(230)
{8}
7h[4:1],,6,6h[8:3],,,5,5h[4:1],,4,4,,3h[8:3],,,5,
1xh[8:14],,E7,,,E6,,,C,,,E4,,,E3,,
2h[4:1],,3,3h[8:3],,,4,4h[4:1],,5,5,,6h[8:3],,,4,
8b,,3,4,3,6,5,6,2h[4:1],,{12}8x,7x,6x,{4}5xb/Cf,,
{8}
2b/6b,,2,4h[8:3],3,,5,7h[4:1],,8,7,,26,,1,1h[4:1],
,2,3,,48,,6,6h[4:1],,5,7,1,5b,,,,
7b/3b,,7,5h[8:3],6,,4,2h[4:1],,1,2,,73,,8,8,
3x,5,3,5,4x,5,4,5,6x,5,6,5,{4}7b,,
{2}
1h[2:4],3,3,3,3h[2:4],4,5,C,1qq1>5[4:5],,6,{4},1pp1<5[4:5],{2},,4,,
8h[2:4],6,6,6,6h[2:4],5,4,C,8z4V62[8:11],{2},1-7[8:3],,
{4}A8/A1/E1/B1/B8,,A5/A4/E5/B5/B4,,A2/A3/E3/B3/B2,A7/A6/E7/B7/B6,Ch[4:2],,
{8}
8,,8,2,,2,1-4[4:1],,3,,,,6,6,5,7,1,,1,7,,7,8-5[4:1],,6,,,,34,,2,,
1q6[8:3]/5,,,,7<3[8:3],,,,2h[8:3],,,1,2,,8,8h[4:1],,4,7,5,6,5,7-3[4:1],,3,,,,B1/E2/E6/B5,,,,
7,,7,5,,5,1v8[4:1],,3,,,,7,7,5,6,2,,2,4,,4,8v1[4:1],,6,,,,63,,5<4[4:8]/4,,
E5,,,,C,,,,E1,,,C,,,E5,,5bh[4:2],,,,{16}4x,5x,4x,5x,4x,5x,4x,5x,
{4}
,,C,,
{8}1bh[8:1]/7,,6-8[8:1],6,5,,1h[8:1]/3,,4-2[8:1],4,5,,7-3[8:1],,1-5[8:1],,
{4}8<4b[4:1],4>8[4:1],8<4b[4:1],4,{8}2h[4:1],,1,2,1,,37,,
{8}4bh[8:1]/6,,7-5[8:1],7,8,,4h[8:1]/2,,1-3[8:1],1,8,,6-2[8:1],6,4pp5[32:15],,
{4}8b<5>2b[32:17]`B5/B4/E5f,,D5,7xbh[8:5],{16}D1,D8,D7,D6,D5,D4,D3,D2,{4}D1/Cf,,
{8}
81,1,7,5h[4:1],3,,18,8,2,4h[4:1],6,,87,,21,,
34,3,6,5,48,,17,,65,,3,4,1b/5b,,,,
{8}4b-8b[8:1],,7-5[8:1],7,1-3[8:1],,4-8b[8:1],,1>4[8:1],1,7<4[8:1],,8w4[8:1],,C,,
{4}2b-6b[8:1],1b-5b[8:1],8b-4b[8:1],7b-3b[8:1],5xh[4:2]`Cf,,4x,,
{8}4>3>2<1<8<7<6[8:5]/5h[8:3],,,,,4,4bh[4:2],,5,,5,,
{8}3>2<1<8<7<6>5[8:5]/4h[8:3],,,,,3,3bh[4:2],,4,,4,,
{8}2<1<8<7<6>5>4[8:5]/3h[8:3],,,,,2,2bh[4:2],,3,,3,,
{8}1<8<7<6>5>4>3[8:5]/2h[8:3],,,,,1,1bh[4:1],,2,,18,,
{8}8<7<6>5>4>3>2[8:5]/1h[8:3],,,,,8,8bh[4:2],,1,,1,,
{8}7<6>5>4>3>2<1[8:5]/8h[8:3],,,,,7,7bh[4:2],,8,,8,,
{8}6>5>4>3>2<1<8[8:5]/7h[8:3],,,,,6,6bh[4:2],,7,,7,,
{8}5>4>3>2<1<8<7[8:5]/6h[8:3],,,,,5,5bh[4:1],,6,,4<5<6<7>8b[4:1]/5>4>3>2<1b[4:1],,
{4},E1f/A1/A8/B1/B8/D1,D5/E5f/A4/A5/B4/B5,{16}A2,A3,A7,A6,E3,D4,E7,D6,B1,B8,B5,B4,
{4}C,,
{6}35,4h[6:1],5,46,5h[6:1],6,{4}5b-3v2V46[16:13]/7xh[8:3],,{16}D7f,D8,D1,,{4},
{6}8,8,17,17,3,65,4x/8x,7,53,{16}6,4,6,4,6,5,6,5,
{6}6,4h[6:1],5,36,5h[6:1],3,{4}4b-6v7V53[16:13]/2xh[8:3],,{16}D3f,D2,D1,,{4},
{6}1,1,82,82,6,34,5x/1x,3,46,{16}3,5,3,5,4,4,4,4,4<5[8:3],,
