&title=Judgement
&artist=Tatsunoshin
&first=1.25
&des_5=Eula
&lv_5=14+
&des=Eula
&inote_5=(200)
{8}
1,2,3,
8,7,6,
4,3,2,
7,6,5,
1,1,7,7,
4,3,2,
5,6,7,
1,2,3,
6,7,8,
{32}
3bx,4x,,,
{8}
6,1,2,
8,7,6,
1,2,3,
5,6,7,
2,3,4,
8,8,2,2,
6,5,6,
3,4,3,
6,5,7,
3,4,2,
6,7,8-4-6-2[8:6],1,2b,,,,,,,,
{8}
3b/4b,3b/4b,,
4b/5b,4b/5b,,
5b/6b,5b/6b,,
1b/8b,1b/8b,,
{16}
1,2,3,4,
6,7,8,1,
{8}
5b,5b,,
2b/4b,2b/4b,,
5b/7b,5b/7b,,
8b/2b,8b/2b,,
{16}
5,6,7,8,
2,3,4,5,
{8}
8b-5[8:2],,5-1[8:2],,3,,
{16}
2,,2/8,3,4,,,,
{8}
6-1[8:2],,1-5[8:2],,3h[8:2],,,,
{16}
6,,6/2,,,,7,,,,1,,
{24}
5b-8[300#8:1],,,,
1b-4[300#8:1],,,,
7b-2[300#8:1],,,,
3b-6[300#8:1],,,,
8b-4[300#8:1],,,,
2b-6[300#8:1],,,,
{8}
7b,,7,7,,
2,2/1,,
6,6/5,,
3,3/4-7[8:1],,1-4[8:1],,6,,
2,2,,
7,7/8,,
3,3/4,,
6,6/5-2[8:1],,8,,
{16}
3,4,3,4,
2,4,2,4,
2,5,2,5,
1,5,1,5,
1,6,1,6,
8,6,8,6,
8,7,8,7,
1,6,2,5,
3,2,1,8,
7/5,4,3,2,
1/5,6,7,8,
1/5,2/6,3/7,4/8,
{8}
5bx/1bx,
,,,,,,,
5/2,,5,3,5/2h[8:1],,5,B1,5,1,5,8,5/2,2,5/2,,
4/7,,4,6,4/7h[8:1],,4,B8,4h[8:1],,3h[8:1]/5h[8:1],,4w8[8:1],,A4,,
6h[8:1]/4h[8:1],,
3h[8:1]/5h[8:1],,
7h[8:1]/4h[8:1],,
2h[8:1]/5h[8:1],,
8h[8:1]/4h[8:1],,
1h[8:1]/5h[8:1],,
2h[8:1]/6h[8:1],,
7/3,7/3,
2h[8:1]/6h[8:1],,
1h[8:1]/5h[8:1],,
8h[8:1]/4h[8:1],,
2h[8:1]/5h[8:1],,
7h[8:1]/4h[8:1],,
3h[8:1]/5h[8:1],,
6h[8:1]/4h[8:1],,
5b/Cf,,
7h[8:1]/2-4[8:1],,
7h[8:1]/2,,
6h[8:1]/1-4[8:1],,
6h[8:1]/1,,
7h[8:1]/2>4[8:1],,
7h[8:1]/2,,
6h[8:1]/1>4[8:1],,
6h[8:1]/1,,
5h[8:2],,8h[8:1],,8/6h[8:2],,
{16}
4,,5x/2h[8:1],6x,7x,,,,2,,1,,2/5,3/6,4/7,5/8,6,7,8,1,
{8}
2b-4[8:1],,
5/2b-6[8:1],,
2b-4[8:1]/7,,
2b-6[8:1]/5,,
2b-4[8:1]/8,,
2b-6[8:1]/5,,
7/2b,,
8x/5x,7x/4x,
1b-3[8:1],,
4/1b-5[8:1],,
1b-3[8:1]/6,,
1b-5[8:1]/4,,
1b-3[8:1]/7,,
1b-5[8:1]/4,,
6/1b,,
8,
{32}
8x,7x,6x,5x,
{8}
2bx-4[8:1],,
5/2b-6[8:1],,
2b-4[8:1]/7,,
8bx-5[8:1]/2b,8bx,8bx-3[8:1],,
8b-5[8:1]/6,,
8b-3[8:1]/2,,
8b/7x,7x,
6bx,5x,
1x,2x,
{16}
7x,6,
5/1x,2,
3/8x,7,
6/2x,3,
4/5x<4[8:4],
,,,,,,,,,,,1b,,,,
6x,,6,5,7,4,5,4,6x,3,4,3,5,2,5,4,6x,2,7,1,8,2,7,3,6hx[8:1],,
4,5h[8:1],,3,4h[8:1],,1hx[8:1],,,7,1-3-5-2b[8:3],,6h[8:1],,,,7h[8:1],,,,8h[8:2],,,,
3,4,7,6,5,4,
2,3,8,7,3,4,7,6,2bh[8:1],,4h[8:1],,2h[8:1],,4h[8:1],,2h[8:1],,
5,6,7,1,2,3,7bh[8:1],,5h[8:1],,7h[8:1],,5h[8:1],,7h[8:1],,
4,3,2,8,7,6,
5bx/1bx,,5bx/1bx,,,,
7bx/3bx,,7bx/3bx,,,,
2bx/6bx,,2bx/6bx,,,,
4bx/8bx,,4bx/8bx,,,,
2x,3,7x,6,3x,4,8x,7,2b,,,,
5,,
6,6,
2,3,4,5,1,8,7,6,4b,,
,,5,,
3,3,
7,6,5,4,8,1,2,3,5b-1[8:1],,,,5/7,,7<4[8:1],,,,7/1>8b[8:3],,,,C,,,,,,
5,,6,,2,3,4,5,1,2,3,4,5/1x,,,,
5,,2,2,7-5[8:1],,4-8[8:1],,7,,4,,6x,,,,
4,,7,7,2-4[8:1],,5-1[8:1],,2,,5,,
{12}
3b,,
C/2b,,1b,,
5b,,6b/C,,7b,,
{8}
1bw5[8:1],,,,
8bw4[8:1],,,,
Cf/B7/B1/B5/B3/E1/E2/E3/E4/E5/E6/E7/E8,,,,
3h[8:8],,,,B5,,,,B6,,,,
{8}
B8,,B7,,E7,,E3,,B3,,,,,,,,
6h[8:8],,,,B4,,,,B3,,,,B2,,,,
B1,,B2,,E3,,E7,,B6,,,,,,,,
1-4-8<6[8:14],,,,E6,,,,B6,,,,B7,,,,
E8,,B8,,B1,,E4,,B4,,,,,,,,
8-5-1>3[8:14],,,,E4,,,,B3,,,,B2,,,,
E2,,B1,,B8,,E6,,Cf,,,,,,,,
{16}
8bx/2-6[8:1],,7,,6,,
7b-3[8:1],,2,,3,,
1b-5[8:1],,7,,6,,
8b-4[8:1],,2,,3,,
1,2,3,4,1,8,7,6,
2b-6[8:1],,6,,7,,
8b-4[8:1],,3,,2,,
1b-5[8:1],,5,,6,,
7b-3[8:1],,3,,2,,
{24}
1x,8x,1x,8x,1x,8x,
{16}
2,7,3,8,
4bx,5,4x,6,4x,3,5bx,3,4x,2,6x,5,7bx,2,1x,3,7x,8,6bx,3,5x,3,5x,2,
7bx,8,6x,1,5x,2,4x,3,
8bx,1,7x,2,6x,3,5x,4,
1bx,2,8x,3,7x,4,6x,5,
{32}
1,2,3,4,1,2,3,4,8,7,6,5,8,7,6,5,
1,2,3,4,5,6,7,8,1,2,3,4,5,6,7,8,
{16}
1bx,5x,1x,5x,1x,5x,1x,5x,1x,5x,1x,5x,1x,5x,1x,5x,
2,6,2,6,2,6,2,6,2,6,2,6,2,6,2,6,
3,4,2,5,3,4,2,3,1,4,2,3,
1,4,2,5,4-8[8:5],,,,6h[8:1],,,,2h[8:1]/4-8b[8:1],,,,4b/6,
{32}
B4,Cf,B8,,,,
{16}
1/5,,3,4,2,4,3,,
6,5,6,,2,1,
{24}
2x,3x,4x,
{16}
7b-3[8:1],,6,,7/8-4[8:1],,1,,8/7-5[8:1],,6,,1/7,,1,,
8/1,,6,5,7,5,6,,1/3,,7,8,6,1,
{24}
6x,5x,4x,
{16}
2b-6[8:1],,3,,2/1-5[8:1],,8,,1/2-4[8:1],,3,,8/2,,8,,
6b,,1,1h[8:1],,7,,3,4,3,,6,5,7,5,,1b>4[8:1],,4,,1<6[8:1],,6,,
1b-5-1[8:2],,5b,,1b>2-8-3-7-4-6>5b[8:8],,7b,,6b,,,,,,,,,,,,,,,,
Ch[8:4],,,,,,,,
1,2,3,4,7,6,5,4,
{24}
2bx>5[8:1],1x,2x,1xv6[8:1],,,
{16}
2bx,,1bx,,8bx-4b[8:1],,,,6-2[8:1]/8,,5,,6/4-8[8:1],,,,5/4,,,,
2,1,3,8,4,7,
{24}
5x,4x,3x,
{16}
2bx-4[8:1],,8-4[8:1],,2,,8,,
1,2,7,6,2,3,6,5,
8bx/2bx,,,1bx/3bx,,,7bx/1bx,,6bx/5bx,,,2bx/4bx,,,8bx/6bx,,
{32}
1/2,,,,1/2,3,4,5,,,,,
8/7,,,,8/7,6,5,4,,,,,
1/3,,,,6/4,,,,
8b/7b,,,,8b/7b,6/A1,5/A2,4/A3,,,,,
1b/2b,,,,1b/2b,3/A8,4/A7,5/A6,,,,,
7/5,,,,8/2,,,,
{16}
3b>8b[8:1],,7b<4b[8:1],,3,,7,,
4b,8b,3b,7b,2b,6b,1b,5b,8b<7<6>5>4>3>2<1<8b[8:4],,,,,,,,,,,,
C,,,,
1/2,,3/8,,7/4,,,,
2x-5[8:1],,,,8-3[8:1],,,6x,,,
6x-3[8:1],,8-5[8:1],,,2x,,
2x-5[8:1],,,8-3-6-1b[8:4],,,6x,,,,,,,,,
7x-4[8:1],,,,1-6[8:1],,,3x,,,
3x-6[8:1],,1-4[8:1],,,A7,D7/E7,A6,D6/E6,A5,D5/E5,A4,D4/E4,A3,D3/E3f/B2/A2,,,,,,,,
3bx-8[8:1],,,5bx-2[8:1],,,7xx,,
7bx-2[8:1],,,5bx-8[8:1],,,3xx,,
3bx-8b[8:1],,,5bx-2b[8:1],,,7xx,,
6,,5,,4/1,,2,,8/3,,7,,6/1,,2,,3hb[8:6],,,,
B2,B3,B4,B5,B6,B7,B8,E2,E3,E4,E5,E6,
7hx[8:2],,1,2,3,,
2hx[8:2],,7,6,5,,
8,,8,,8hx[8:2],,2,3,4,,
6hx[8:2],,3,2,1,,7,,7,,
2x,1,2x,1,3x,8,3x,8,4,7x,5,6x,4,7x,3,8x,2x-8<6-4[8:4],,,,,,,,3w7b[8:1],,,,,,,,1bh[8:8]/5bh[8:8],,,,,,,,,,,,,,,,,,,,1/5,,,,1,5,2,6,
{64}
A3,D4/E4,A4,D5/E5,A5,D6/E6,A6,D7/E7,A7,D8/E8,A8,D1/E1,A1,D2/E2,A2,D3/E3,
{16}
3b,,
6,5,6,,
2,1h[8:1],,
3,8h[8:1],,4,,
{24}
4x,3x,2x,
{16}
7bx<4[8:1],,6,,2bx-4[8:1],,1-5[8:1],,2bx-6[8:1],,1bx,,2,,8bx,7bx,
6bx/1h[8:2],,7,,6,,2h[8:2],,4,,5,,3h[8:1]/8,,7,,1/6bh[8:2],,8,,1,,5h[8:2],,3,,2,,4h[8:1]/7-5-3[8:2],,8,,3b-7-1[8:2],,2,,1-3-5[8:2],,2h[8:2],,,,,,3,,3,,
1,8,7,6,8,7,6,5,
2,1,3,8,4,7,5,6,
{24}
1x<6b[8:1],2x,3x,4x-8b[8:1],,,
{16}
1bx,,4bx,,5b-8b[8:1]*-2[8:1],,,,5,,,,
1b-6b[8:1]*-4[8:1],,,,1,,,,
7x,8,6,1,4x,3,5,2,
{24}
8x,7x,6x,
{16}
2-5[8:1],,1,,2,,
7-4[8:1],,8,,7,,1,,
{12}
5bx/3bx,,4bx/2bx,,6bx/4bx,,7bx/8bx,,3bx/1bx,,5bx/7bx,,
{16}
2bx>5[8:1],,
{24}
1,8,7,6/2b,,,
{16}
7bx<4[8:1],,
{24}
8,1,2,3/7b,,,
{16}
1b,,1b,,
{16}
6bx<1b[8:1],,
{24}
5,4,3,2/6b,,,
{16}
3bx>8b[8:1],,
{24}
4,5,6,7/3b,,,
{16}
5b,,5b,,
2b,,3,,7/4b,,6,,5b,1b,6b,8b,7b<7b[8:6],7b>7[16:11],7b,7b,7b
{1}
,
{16}
1h[8:2],,8h[8:2],,,,
3h[8:2],,4h[8:2],,,,
2h[8:2],,1h[8:2],,,,
5h[8:2],,6h[8:2],,,,
1,,2,,3,,4,,
8h[8:2],,1h[8:2],,,,
6h[8:2],,5h[8:2],,,,
7h[8:2],,8h[8:2],,,,
4h[8:2],,3h[8:2],,,,
A8,,A7,,A6,,A5,,E
