&title=KICKBACK
&artist=米律玄師
&first=-0.04
&des=DOLIVE
&lv_5=13
&inote_5=(204)
{4},,
{8}4,,4,,5h[8:3],3h[2:1],,,,4,,4,,2,2,,
5,,5,,6h[8:3],4h[2:1],,,,5-3[8:1],,5,2-6[8:1],,,,
7,,7,,5h[8:3],6h[2:1],,,,4-6[8:1],,4,7-3[8:1],,,,
2,,2,,5h[8:3],3h[4:1],,,{16}6,4,6,4,{8}7>3[8:1],3<7[8:1]*<7[8:1],7b,,,1,
{16}1b,,7,8,7h[4:1],,2,,2b,,6,1,6h[4:1],,3,,3b,,7,5,7,,4,6,4b,,5h[4:1],,2,,2,,
5b,,3,4,3h[4:1],,6,,6b,,2,5,2h[4:1],,7,,7b,,3,1,3,,8,2,8b,,1h[4:1],,6,,6,,
2b,,3,4,3h[4:1],,7,,7b,,6,5,6h[4:1],,2,,2b,,3,4,3,,7,5,7b,,6h[4:1],,1,,1,,
6b,,7,5,7h[4:1],,3,,3b,,2,4,2h[4:1],,6,,6b,,7,5,7,,2,1,3b,8,3,7,1,,6,,
{8}2h[4:1],,5^7[8:1],,3,3,,8-4[8:1],,2,1,8^3[8:1],,5,6,7V14[4:1],,4^7[32:7],,8,,2,2h[4:1],,7,1,8-5[8:1],8-3[8:1],,,,26,
62,,7^5[8:1],,2,2,,4-8[8:1],,1,2,3^8[8:1],,7,6,5^8[8:1],,2,3,4-8[8:1],,7,,16,,{16}2,4,3,,7,5,6,,{8}1h[4:1],,
8^5[8:1],2,2,,1q5[8:1],7,7-4[8:1],,7/8b,,
1,6^4[8:1],4-7[8:1],3,2-6[8:1],,2/8b,,7^4[8:1],4-8[8:1],,1,1^4[8:1],,1b/7,,6,4,{16}7,,5,4,3,2,5,6,7,8,
{8}5-2[8:1],,57,,6,2,7,1,4-7[8:1],,1-5[8:1]/4,,1/7-3[8:1],,2qq5[8:3],,,6,6h[4:1],,,,74,5b/6b,,3h[8:1],1h[8:1],7h[8:1],5h[8:1],2,8,6,
4>8[8:3],,,,4<8[8:3],,,,1,1,2,2,3h[2:1],,7,,
5<1[8:3],,,,5>1[8:3],,,,8,8,7,7,6h[2:1],,2,,
8>4[8:3],,,,8<4[8:3],,,,3,3,2,2,1h[2:1],,5,,
7h[8:3],,,4,46,,5,52,3,3,48,,7,5,6,{16}3,4,{8}2,,35,,{12}6,8,8,7,1,1,8,2,2,1,3pp6[1:2]*pp4[24:27],3,{1}2b<4[1:1],,
{4},
5^8[8:1],{24}1b-5[8:1],2,3,{8}4,1,,2,2,{16}7,5,6-4[8:1],,3,,3,,2h[4:1],,,,5,3,5,3,
{8}6-1[8:1],,2V41[32:7]/6,,28,,7,7-3[8:1],,1h[4:1]/7,,{16}4,8,4,8,4,8,
{24}3,2,1,8,7,6,2<3[4:1],1<3[24:5],8<3[6:1],7<3[8:1],6>3[12:1],5>3[24:1],
{8}2b,,8-4[8:1],,5,6,7,8,1^6[8:1],,2,1,8V24[32:7],,6-2[8:1],,,,{16}1,8,7,6,
1b,5b,2b,6b,3b,7b,4b,8b,3b,7b,2b,6b,1b,5b,2b,6b,3b,7b,4b,8b,
4^1[8:1],,,,{24}8b-4[8:1],7,6,{8}5,8,,7,7,{16}2,4,3-5[8:1],,6,,6,,7h[4:1],,,,4,6,4,6,
{8}3-8[8:1],,7V58[32:7]/3,,71,,2,2-6[8:1],,8h[4:1]/2,,5qq6[8:3],6pp6[4:1],,6b,,,,
6-4[8:1],,6-8[8:1],2,6-4[8:1],3,6-1[8:1],2,6,{16}3,,8,,2,1,2,,6,8,6,,2,4,
{8}3-5[8:1],,3-8[8:1],7,3-5[8:1],6,3,7,2,{16}6,,1,,7,8,7,,3,1,3,,7,5,
{8}6,6,57,75,48,48,31,13,{16}2,8,2,8,1,7,1,7,8,6,8,6,7,5,7,5,
{4}6z2[2:1],4,8,6<4[8:3],2>8[8:3],,,1,{16}
8b,,2,1,2h[4:1],,7,,7b,,3,8,3h[4:1],,6,,6b,,2,4,2,,5,3,5b,,4h[4:1],,7,,7,,
4b,,6,5,6h[4:1],,3,,3b,,7,4,7h[4:1],,2,,2b,,6,8,6,,1,7,1b,,8h[4:1],,3,,3,,
7b,,6,5,6h[4:1],,2,,2b,,3,4,3h[4:1],,7,,7b,,6,5,6,,2,4,2b,,3h[4:1],,8,,8,,
3b,,2,4,2h[4:1],,6,,6b,,7,5,7h[4:1],,{24}3b,2,1,8,,,3b,2b,1,8,,,2b<6[8:1],1b<5[8:1],8b<4[8:1],7<3[8:1],,,2b,1b,8b,7bs3[16:5],,,
