&title=アリスサイド・キャスリング
&artist=メリー・バッド・メルヘン
&first=0
&des=おにねこ·なないし·KuSA
&wholebpm=115
&lv_5=14
&inote_5=(115)
{1},,
{16},6h[16:7],,,,,,{32}3,4,{32}5h[32:15],
{16},,,,,,,{32}4<7[8:2],,{24}2,5,3,6,{32}4h[64:35],
{16},,,,,,,,{64},{16}5>2[16:2],,,,{32}8,7,{32}6h[32:15],,,,,
,,{16}1h[16:6],,,,,,5<5[8:12],,{8}1>1[8:11],,,,,,,,,,,,,,,
{128},,,,,,,,,,,,,,
{16}
1b,,3h[16:1],,6h[16:1],,5h[16:1],,
3h[16:1],,6h[16:1],,5h[16:1],,4h[16:1],,
1b,,3h[16:1],,4h[16:1],,6h[16:1],,
5h[16:1],,3h[16:1],,4h[16:1],,6h[16:1],,
1b,,6,7,,2h[16:1],3,,7h[16:1],6,
{16}
8-4[16:2],,,,2,,,,3<6[16:2],,,,
4h[8:4],,,,3,,,,6>3[16:2],,,,
8h[16:8],,,,6,,,,3h[16:4],,,,
4v2[16:4]*V68[16:4],,,,,,,,,,,,
1/8v1[16:3],,,,4,,,,3<6[16:2],,,,
8h[16:8],,,,3,,,,6>3[16:2],,,,
5h[16:6],,,,6,,,,5-3[8:1]/3-5[8:1],,,,
5p8[16:3]/3q8[16:3],,,,,,,,,
{32},8,7,6,4,3,
{8}
2V48[8:2],,5<8[8:1],,5,,
8/6V48[8:2],,4>1[8:1],,4,,
4V26[32:8]/6V84[32:8],,4-1[32:4]/6-1[32:4],,,,3/6<3[8:2],,,,
{16}1h[8:2],,,,
4-1[16:1],,,4-8[16:1],,,
4-7[16:1],,,4-1[16:1],,,
4z8[8:3],,,,,,,,,,,,
2h[8:2]/5h[1024:1],,4h[1024:1],,3h[1024:1],,
2,1,3,,
6h[8:2]/1h[1024:1],,8h[1024:1],,7h[1024:1],6,
8,8,6,,
1h[8:2]/5h[1024:1],,4h[1024:1],,3h[1024:1],2,
4,4,2,,
5h[8:2]/1h[1024:1],,8h[1024:1],,7h[1024:1],7,
6,5,7,,
{16}
1h[8:1]/8,,4,3,5,,7h[8:1],,5,6,4,5,
{24}3,4,3,{16}4,2,5-1[8:1],4,7,,5b,,
8h[8:1],,2h[8:1],,4,4,3-7[8:1],,8,,3b,,4h[8:1],,
{24}1,5,2,{16}6,6,5,5,{24}8,4,7,{16}3,3,4,4,
2v1[16:2],,56,,,,7v8[32:4],,34,,,,3v4[8:1],,16,,,,
8h[8:1],,4h[8:1],,2h[8:1],,6-1[8:1],,7,8,6,,3-8[8:1],,2,1,3,,
6h[8:1],,1h[16:1],5h[16:1],8h[16:1],4h[16:1],
{32}7<1[8:7],8,1,2,3,4,5,6,
{4}7,,{32},,,,,,,,,{4}8<2[8:7],,,1<3[32:34],,{64},,,,,,,,,,,,,,,
{8}2<7[32:10],,,,,{64},,,,,,,
{8}
2h[8:1],3h[8:1],4,
7h[8:1],6h[8:1],5,
3h[8:1],4h[8:1],5h[8:1],6,
{16}7-1[32:4]/4-8[32:4],,6,5,
4pp5[32:6]*qq3[32:6],,,,,,,,8-4[8:1],2h[16:1],6h[16:1],4h[16:1],
8b,,2q6[8:1],,43,,2,,8p3[8:1],,75,,8,,1p8[16:3],,
{16}3,6,1,,5,,{24}7,6,5,{8}4<7[8:1],2,
{24}1,2,3,{8}4>1[8:1],6,
{24}7,6,5,{16}4q8[32:4],,3,3,4,,
{16}2,1,6,7,3,4,1-4[16:1],,,1-5[16:1],,,
1-6[16:1],,,1-7[16:1],,,
1,,
{24}4,3,2,{16}6h[8:1],,8h[8:1],,4h[8:1],,7,7,3h[8:1],,
1h[8:1],,5h[8:1],,3h[96:17],,{32}7h[96:5],,48,15,62,,,,
{16}4b/8b,,6h[8:1]/5,,3,{32}5,4,
{16}6,,3h[8:1]/4,,7,{32}4,5,
{16}3,,7h[8:1]/5,,2,{32}6,5,
{16}7,,2h[8:1]/4,,8,{32}3,4,
{16}2,,6h[8:1]/1,,4,{32}7,8,
{16}6,,3h[8:1]/8,,4,{32}2,1,
{16}3,,6h[16:2],,2h[8:1],{32}7,6,
{16}5b,3b,4b,5b,6b,7b,
81,,7/8>5[32:7],,76,,5,,,,7,,8/1,,2/1<6[32:4],,3,,4b,3b,2b,1,8,7,
6>3[16:2],,,3<6[8:1],,,2q7[32:5],,,,,,
{8}8,1h[1024:1],1h[1024:1],2,1h[1024:1],4,1h[1024:1],1h[1024:1],6,1h[1024:1],
4,3h[1024:1],3h[1024:1],2,3h[1024:1],8,3h[1024:1],3h[1024:1],6,3h[1024:1],
5/4h[8:2],1-5[32:3],1,2b,8,6/5h[8:2],2-6[32:3],2,3b,1,6/7h[8:2],3-7[32:3],3,4b,8,7/8h[8:2],4-8[32:3],4,5b,1,
{8},3h[8:1],,7s3[8:3],,7,,2,,4s8[8:3],,4,,5,,6z2[8:3],,6,,3,,1z5[8:3],,1,8h[4:1],,,
{8}7p4[16:5],,7,,2,{16}1,5,{8}1pp8[8:3],,1,,5h[8:2],,6pp5[8:3],,6,,1h[8:2],,3p2[8:3],2,3,5,6,7,
{8}1qq6[8:3],,1,,3h[8:2],,4qq8[8:3],,4,,5h[8:2],,6qq7[8:3],,6,,3,,5pp5[8:3]/4qq4[8:3],,,,
{16},,,,3b/6,,,1/8b,,,2b/5,4,3,4/7b,5,6,2b/7p4[8:3],,,,,,3,,,,,,
{16}1,7,2,6,3,5,4,7,3,6,2,5,1b,,,,{16},,,,54,54,3,,
{16}6-1[8:1],,7,5,6,,3-8[8:1],,2,4,3,,{32}5-1[8:1],6,{16}7,4,6,5,,7-3[8:1],,6,8,7,,1-5[8:1],,2,8,1,,7-4[8:1],,4/8,,3/7,,
{24}1,2,3,{16}1,4,6,5,{24}8,7,6,{16}8,5,3,4,
{16}2b^7[8:1],,1/8,,,,6b^3[8:1],,4/5,,,,2b-6[8:1],,1/5,,,,7-4[8:1],,5/8,,3/7,,1-4[16:2],,4,4,1,,7p4[16:5],,4,4,7,,3,,
{8}2,1h[96:11],{32}8/2,3/7,4/6,5,6,7,8,1,{8}2b-5[8:1],3/4,2,7-3[8:1],4/8,7,1-5[8:1],2/4,
{16}1,8,8-4[8:1],,5/7,,8,,
{8}3-8[8:1],2/5,3,6-2[8:1],5/7,6,1-6[8:1],{16}8,3,{8}1,2h[16:6],{16}3,4,5,6,
{16}7-4[16:1],,,1-5[16:1]/7,,,6-1[16:1]/1,,,6/3,,,2>5[8:1],,{24}7,1,8,{16}2,,7-4[8:1],,8,3,7,,2-6[8:1],,1/3,,2,,5h[32:7],,{32}6,7,8,1,2/6,3/7,4/8,1/5,
{16}2V48[32:4]/6,,84,,2/6,,7V53[32:4],,65,,3/7,,2V84[32:6],,18,,2,6,6pp7[32:5],,5,,{24}1,2,3,4qq3[16:3],,,5,,,8,7,6,5<8[8:1],,,4>1[8:1],,,5,,,4,,,{16}8,8,1h[8:1],,7h[16:5],,{16}1,2,3,4,
{16}5/6-1[16:1],,,4-7[16:1]/6,,,2-5[16:1]/4,,,2/8,,,7<4[8:1],,{24}2,8,1,7,,,{16}2-6[8:1],,1/5,,2/6,,8,,7/5-1[8:1],,4/6,,3/5,,,{32}2pp5[1:1]/8,37,64,,,,2h[8:3],,,,,,,,
{8},,,1h[8:3],,,,,
{8}8h[8:3],4,5,6,7,1h[4:1],6,5h[8:1],
{24}2,3,4,7,6,5,{16}2,,3,,4,,6,5,7,,4,,
{16}6,,5,,3,4,2,,7,5,1,2,4,3,8,5,
{16}6,,1h[16:1],8h[16:1],2h[16:1],5h[16:1],4h[16:1],7h[16:1],
(230)
{16}1,2,3,4,1-5[8:1]*-5[8:1],8,7,6,
{8}1b/5b,,6,5-2[8:1],,75,8-5[8:1],,8-3[8:1],,
{8}8,,5,6/4-7[8:1],,24,1-4[8:1],,1-6[8:1],,
{8}1,,4,3/5-2[8:1],,75,8-5[8:1]*-3[8:1],,8,,
{8}2/6,,8,7/1-6[8:1],,31,4-1[8:1]*-7[8:1],,4,,
{8}2b/6b,,53,2,8qq6[32:5],4,8pp2[32:5],,8-4[8:1],,
{8}8,,3,7,1pp3[32:5],5,1qq7[32:5],,1-5[8:1],,
{8}1,,7,3,5v8[8:1],1,5v2[8:1],,5-1[8:1],,
{8}5,,2,6,4-8[8:1],8,4,,,,
{4}5q1[16:4],5p1[16:4],,5pp7[16:5],5qq3[16:5],,5pp6[16:5],5qq4[16:5],,8,7,6,
4qq3[16:5]*pp5[16:5],4b,,4q8[16:3]*p8[16:3],4b,,
{8}8<5[8:1],,3,3b>8[8:1],,6,6b>3[8:1],,2,2h[8:2],,
6,
5,7,5,5,4,2,
4,4,5,7,5,4,
{4}2,87,56,{16}43,5,6,7,8,1,2,3,
{8}45,,3,4,3,4,2,6,1,8,
,,,,,,,,,,,{32},,,,
(115){8}3h[8:2],4h[8:2],,3h[4:1],5h[8:2],,3h[4:1],6h[8:1],,
3h[4:1]/6h[8:1],,5,5<7[8:1],4,3,4-7[8:1],3,2,3V57[8:3],2,1-3[8:1],1,,,
6h[8:2],5h[8:2],,6h[4:1],4h[8:2],,6,5-1[8:1],4,3,,{16}8,1,
{8}2>5[6:1]/7-3[6:1],,,,{24}2,1,8,7,6,5,
{16}4q8[8:1]/3,,,,,,5p1[8:1],,,,,,8p6[4:1],,1>5[8:1],,,,,,,,3/6,,
4>2[8:1],,5,,6,,5-2[8:1],,6,,7,,6qq3[8:3],,7,,8,,1,,,,8,,8h[2:1]/1h[8:1],,,,,,
1b,,1b>8[8:5],,,,3h[4:1],,,,,,2h[4:1],,,,,,1/8,,2/7,,3,6,4,5,
4/5p4[4:1],45,4/5,45,4b>5[16:5]/5b,,,,,,,,,,3,4,2<7[8:1]/5h[4:1],,4,,2,,
{32}6,5,4,3,{16}8-4[8:1],,16,,{24}3,2,1,8-5[8:1],,,71,,,3,2,1,8<5[8:1],,,
6/2,,,{48}4,,3,,2,,1,,4,,3,,2,,1,,8,,7,,6,2,5,,{16}3,4,5,6,3/7-4[16:1],,,
7/5-2[16:1],,,3>8[16:1]*<6[16:1]/5,,,3,,,{24}7<4[12:1],,,1,8,2,{16}7,,
2,4,5,7,1,3,5<8[12:1],,3,4,25,,4>1[12:1],,7,{32}5b,6b,4b,,,,
{16}8b,1,7,2,6,{32}62,73,
{16}8b/4,5,6,3,8,{32}2,1,
{32}2b,,5,,{16}4,7,3,{32}73,62,
{16}5/1b,4,2,7,8,{32}6,5,
{32}6b,,1,,{16}8,2,6,{32}62,37,
{16}8/4b,1,5,7,3,{32}6,5,
{32}6b,,{16}3,5,5,4/6,4,7/3,7,
{48}1,2,3,5/4v1[12:1],6,7,{16}8p4[12:1]/1,,4v3[16:2],,8,,4,,7,7,5,5,3q8[8:1],3,1q6[8:1],,3,,1,,
7,7,5,5,3<6[2:1],3,1h[8:6],,,,,,,,,,,,3h[256:1],,,4h[256:1],,,
{48}5h[256:1],,,,,,,,,,,6h[256:1],,,,,,,{16}
8/7h[16:3],,,1q7[8:1],,,2>5[12:1],,,,,,
6b,6-1[12:1]/8,,4,4-7[12:1],6,3,3,4,,
2,2-5[12:1]/5,,8,8-3[12:1],2,7,7,8,,
6,6-3[12:1]/2,,8,8-5[12:1],6,1,1,8,,
2,2-7[12:1]/6,,4,4-1[12:1],2,5,,48,,
6b,62,2-4[16:1],8-6[16:1],1-5[16:1],7,,,,,
3b,37,7-5[16:1],1-3[16:1],8-4[16:1],3,,,,,
6b,63,3-5[16:1],7-5[16:1],1-5[16:1],8,,,,,
3b,3b/6b,6-4[16:1],2b-4[16:1],8-4[16:1],4b,6b,2b,8b>7[8:16]*v7[16:4],,,,,,,,,,,,
{8}8v1[16:4],,,,,8v2[16:4],,,,,8v3[16:4],,,,,
{8}4h[8:5],,,,,5h[8:5],,,,,1h[8:5],,,,,8h[64:24],,,
{32}1,,{32}18,72,63,54,
