&title=Λkasha
&artist=BlackY feat. Risa Yuzuki
&first=0
&des=GAHOU
&lv_5=14+
&inote_5=(180)
{1},
{12}C,,,,E8,,B3,,B5,,E2,,
{12}B7/E7,,B3/E4,,C,,E6/B5/B6/E2/B1/B2,,,,B3,B4,
{12}E5,,E7,,E6,,E4,,E3,,E2,,
{4}1h[4:1]/5h[4:1],,5h[4:1]/3h[4:1],,
{4}6h[4:1]/5h[4:1],,8h[4:1]/5-1[8:1],,
{4}7h[4:1]/8h[4:1],,4h[4:1]/2h[4:1],,
{4}6-4-7-3-8[8:5]/1h[4:1],,3,2,
{4}7h[4:1]/1,6,5/3h[4:1],2,
{4}8h[4:1]/2,7,6h[4:1]/1-5[8:1],,
{4}7/6,8/1,2/3,4/5,
{12}7,5,6,8z4V61[8:3]*V24-1[8:3],7,1,,,,,,,
{8}2h[4:1],4-1[8:1],5,4b/7b,,8,7h[4:1],5-8[8:1],
{8}4,5b/2b,,1,{24}8x,1x,8x,1x,8x,1x,8x,1x,8x,1x,8x,1x,
{24}8x,1x,8x,1x,8x,1x,8x,1x,8x,1x,8x,1x,8x,1x,8x,1x,8x,1x,8x,1x,8x,1x,8x,1x,
{48}E1,E2/E8,Cf/E7/E3,E6/E4/E5,5x<4[48:23]/4x>5[48:23],,,,,,,,{4},,,
{16}3-8[8:1]/4-8[8:1],,,,3/4,,,,7h[16:3],,,5,6,,3/5,,
{16}4/2h[16:3],,,1,3,,8/4,,7,6,5,4,1,2,3,4,
{16}5-1[8:1]/6-1[8:1],,7,,5/6,,,,2h[16:3],,,4,3,,6/4,,
{16}5/7h[16:3],,,8,6,,1h[8:1]/5h[8:1],,,4h[8:1]/3h[8:1],,,2-5-8[4:1]/8,,6/4,,
{16}8/2,,,,6,,7/1,,2h[16:3]/8,,,5,4,,7/3,,
{16}2,8,2,8,5,6,5,6,1,7,1,7,3,5,3,5,
{16}1-6[8:1]*-4[8:1],,2,8,1`Cf/B7/B3,,,,8h[8:1]/2h[8:1],,,1h[8:1]/3h[8:1],,,2h[16:1]/4h[16:1],,
{16}1h[8:1]/5h[8:1],,,6h[8:1]/3h[8:1],,,7/5,,{24}8,4,8,4,8,4,8<5[8:1],4>1[12:1],8,4,8,4,
{16},,,,2,4,3,4,2,5,4,5,2,6,5,6,
{48}2x,E3,E4,E5,,,,,,8x,E8,E7,E6,,,,,,1x,E2,E3,E4,,,,,,7x,E7,E6,E5,,,,,,{8}4x/2,1,
{8}7/8,7/8,7/5,7/5,5/4,5/4,2/4,2/4,
{48}7x,E7,E6,E5,,,,,,3x,E3,E2,E1,,,,,,5x,E6,E7,E8,,,,,,1x,E2,E3,E4,,,,,,{8}5x-2[8:1]/8-5[8:1],,
{16}5/8,,,,1,4,3,5,2,5,4,6,3,6,5,7,
{16}8h[8:1]/1h[8:1],,,4h[8:1]/2h[8:1],,,5/4,,7h[8:1]/5h[8:1],,,5h[8:1]/4h[8:1],,,4/2,,
{1}8<2>8[8:13]/1h[2:1],
{1}8h[2:1],
{24}A2,D3,A3,D4,A4,D5,A5,,,,,,A8,D1,A1,D2,A2,D3,A3,,,,,,
{24}A6,D7,A7,D8,A8,D1,A1,,,,,,A4,D5,A5,D6,A6,D7,A7,,,,,,
{1}1>7<1[8:13]/7h[2:1],
{1}8h[2:1],
{24}A7,D7,A6,D6,A5,D5,A4,,,,,,A1,D1,A8,D8,A7,D7,A6,,,,,,
{24}A3,D3,A2,D2,A1,D1,A8,,,,,,A5,D5,A4,D4,A3,D3,A2,,,,,,
{8}8h[2:1]/7,,,5,5-1-7-4[8:5],,4,,
{8}3,,2,,1/3h[2:1],,,8,
{8}8-3-5-1[8:5],,6,,7,,8-4[8:1],,
{8}2,,1/5,1/5,2/6,2/6,7/3,7/3,
{8}8/4,8/4,7/3,6/2,{16}1,5,1,5,1,,7,3,
{16}7,3,7,,2,6,2,6,{32}2,3,4,5,{16}7x,8x,7,8,{32}7,6,5,4,
{16}2x,1x,3,8,2,1,{32}2,3,4,5,{16}7x,8x,6z2[8:3],1-5-1[16:5],,,,,
(360){1},
(180)
{24}7x,8x,7x,8x,7x,8x,7x,8x,7x,8x,7x,8x,7xb,6,5,4,1b,2,3,4,6b,7,8,1,
{24}5b,4,3,2,8b,7,6,5,3b,2,1,8,5,,5,,5,,{32}6x-2[16:1],7,8,1,2,3,4,5,
{1}6xb/8b-5-1-4-7[1:1]*-3-7-4-1[1:1]`Cf,
{4},,{24}1,2,3,4,5,6,{32}8,7,6,5,4,3,2,1,
{16}4-1[8:1]/8,,,7,4<7[8:1],,5,,4/1-5[8:1],,2,,8V64[8:1]/1,,6,,
{16}8v3[8:1]/2,,,3,8,,2,,{24}1,5,1,5,1,5,6b/2b,,,,,,
{16}8/1>4[8:1],,,7,1-5[8:1],,5-2[8:1],6,7/1,,8x,7,6,,{24}5x/2x,6/3,7/4,
{16}8/5-1[8:1],,,8,5,,{24}7,6,5,4xv7[8:1]/8xv3[8:1],,4x/8x,,4x/8x,,4x/8x,,,,,,
{16}8/2,,6,4,6,3,6,2,6,,{24}4,5,3,4,,,4/2,,,
{16}8/3,,7,1,7,2,7,3,{24}5,4,6,5,,,{8}7/5,8/1,
{24}2/6,3,4,5,6,7,3,4,5,6,7,8,4h[4:1]/1,,,,,,2,1,8,7,6,5,
{16}4bh[8:1]/B1/E2f/A1,,,7bh[8:1]/A5/B5/E6f,,,2b/A3/E4f/B3,,8b>7[4:1]/Cf,,,,{32}E1,E2,E3,E4,E5,E6,E7,E8,
{16}Cf,,,,,,,,1h[8:1]/4h[8:1],,,6h[8:1]/3h[8:1],,,8/5,,
{16}7h[8:1]/5h[8:1],,,5h[8:1]/3h[8:1],,,4/1,,{24}2,1,2,1,2,1,2,1,2,1,2,1,
{8}3-7[8:1]/8,,5-1[8:1]/3,5,5/2-6[8:1],2,8/2,8,
{16}7,5,6,1,8,3,4,2,5/1w5[8:1],,,,1,,,,
{24}7b/8b,,,6,4,5,3,,,4x/2x,,,{8}2/8,2,7/2,2,
{24}6b/2b,,,3,5,4,6,,,7x/5x,,,{8}7/1,7,2/7,7,
{16}5,6,4,8,3,5,2,6,{32}1,2,3,4,5,6,7,8,1,2,3,4,5,6,7,8,
{12}1/Cf,,,3,3,3,4h[6:1]/2,,5h[6:1],,7h[6:1],,
{12}8,8,6,6,4,4,2,2,3,5,1,7,
{12}Cf,,,8,8,8,7h[6:1]/1,,5h[6:1],,3h[6:1],,
{12}1,7,5,1-5[16:1],3,6-2[16:1],1b,,6b,,8bp6[12:8]/4bp2b[12:8],,
{1},
{16}5-8b[8:1]/1,,7,3,5-2b[8:1],,4,,5/7-3b[8:1],,6,,1>4b[8:1]/7,,2,,
{16}1-6b[8:1],,7,7,1-5b[8:1],,5,,1<6b[8:1]/6x,7,8,1,4w8b[8:1],3,2,1,
{16}4x,,,,2/8x-4b[8:1],,7,3,8>3b[8:1],,1,,5-1b[12:1],6,7,8,
{16}5b,,7,6b/8xb,,3,5b/2b,,7,8b/5b,,,3b/4b,,6b/1b,,
{24}8b/2b,3,4,5,6,7,3,4,5,6,7,8,{16}1/2q6b[8:1],,,4,2,,7,,
{16}8/5,,5,6,4,5,3,4,2,2,7,5,6,4,5,3,
{24}4b,3,2,1,8,7,2/6,1,8,7,6,5,{16}4h[8:1]/1h[8:1],,,8h[8:1]/2h[8:1],,,7/3,6/2,
{12}5/1b-4b[16:1],,5b-1b[16:1],,2b-5b[16:1],,6b-2b[16:1],,1b-6b[16:1],,7bs3b[8:1],,
{16},,,,2x,4,2,4,1b,4,3,7b,3,4,1b,4,
{16}2b,6,5,7b,3,4,1b,8,5b,6,2,4,1>6b[16:3],7,3,4,
{16}1b/B5/B4/E5f,,,,7b,8,7,8,5b,4,7,3b,4,1,7b,5,
{32}8b/3,7,6,5,,,8/2b,3,4,5,,,7b/1,6,5,4,,,8/2b,3,4,5,,,6b/1w5[8:1]b,5,4,3,,,,,
{24}1b,,,,,,8,7,6,5,4,3,7,6,5,4,3,2,6,5,4,3,2,1,
{24}7b,8,7,8,7b,8,7,8,6b/1,,,,3b,4,3,4,3b,4,3,4,2b/5,,,,
{1}1>7V53-1b[8:13]/7h[2:1],
{1}8h[2:1],
{1}5h[4:11],,4h[4:3],
{24}4,5,4,5,4,5,4,5,4,5,4,5,4b,3,2,1,7b,6,5,4,2b,3,4,5,
{24}1b,8,7,6,4b,3,2,1,6b,7,8,1,4,,4,,4,,{32}3-7b[16:1],2,1,8,7,6,5,4,
{1}3/1b`Cf,
