&title=Wired Life
&artist=黒木メイサ
&first=0
&des=HY
&lv_5=13+
&des_5=HY
&inote_5=
(128){4},{8},,,,,1p4[2:3]/8q5[2:3],
,,,,,,,,,,,,,,,4h[8:5],
,,,,{2}7w3[4:3],
{8},,,,,,,3,
,4/6,,5h[4:1],,2b,5,3,
4,6h[4:1],,3,,2b/5,4,3,
4,6h[4:1],,3,5,2b/4,5,3,
4,3h[4:1],,5,,2b,,4,
4,6,6,3/5,,7b/4,5,3,
2,6h[4:1],,3h[4:1],,7b,,2/1,
,8,7,6,5,7b/4,3,2h[8:1],
1h[8:1],8h[8:1],7h[8:1],6V82[4:1],,6,4,4h[4:1],
,3,,6/4,5/7,6/4,,3/5,
4/2,3/5,4/6,6/4,5/7,6/4,,5h[4:1]/1h[4:1],
,,,7/3,5/7,7/3,,2/6,
2/5,2/6,1/7,7/1,6/2,5/3,,5,
{16}4,4h[16:3],,,3,3h[16:3],,,{8}4h[8:1],{16}2,3,6,5,{8}4h[8:1],
5h[8:1],7,{16}6,6h[16:3],,,{8}4,5/3,,1,
8h[8:1],7h[8:1],{16}6,6h[8:1],,4,6,4,6,5,{4}4h[4:1],
5,3/6,{8}7/2,8/2,{4}8h[8:1]/1h[8:1],
{8}1/8,5/2,6/3,7/4,,6/4,7/2,1/8-3[4:1],
1,8/7,,5,,7/4,2/6,8/1,
4/7,3/6,{4}5h[8:1]/2h[8:1],{8}3/5,2/7,8,8/1-6[4:1],
2,3/1,,4,3,2/1,{4}1/8,
{8}7/2,3/6,5/4,1/6,2/7,3/8,7/2,1/7,
6/2,5/4-7[4:1],,4/3,,2,3,6/4,
5/3,7/2,{4}1/8h[4:1],1h[4:1],{8}6,6/2,
3/5,4/6,{4}5/7h[4:1],{8}1,2/7,,1/8b-4[8:1],
,8/1b-5[8:1],,1/8b,,7,5/4,4/5b-1[8:1],
4,5/4b-8[8:1],,4/5b,,6,8/1,8/1b-5[8:1],
,1/8b-4[8:1],,8/1b,,2,{4}5/4h[8:3],
{8},3,{4}2h[4:1],{8}1,8/2,,8/7b-3[8:1],
,7/8b-4[8:1],,8/7b,,6,1/8,3/4b-8[8:1],
3,4/3b-7[8:1],,3/4b,,5,8/6,6h[4:1],
,5,{4}5h[4:1],{8}4,3/6,,5h[8:1]/4h[8:1],
,6h[8:1]/3h[8:1],,7h[8:1]/2h[8:1],,1b/8b,,1/8b<5[8:1],
,8/1b>4[8:1],,1/8b,,7,5/4,4/5b<8[8:1],
6,5/4b>1[8:1],,4/5b,,6,8/1,8/1b>4[8:1],
,1/8b<5[8:1],,8/1b,,2,5/3h[8:3],5,
,4,{4}4/2h[4:1],{8}1,8/2,,8/7b<4[8:1],
,7/8b>3[8:1],,8/7b,,6,1/8,3/4b<7[8:1],
5,4/3b>8[8:1],,3/4b,,5,1/6,6h[4:1],
,7,{4}7h[4:1],{8}8,1/8,,7h[4:1],
,2h[4:1],,6h[4:1],,3h[4:1],,5,
,5h[2:1]/4>4[1:1]*>2[4:1]*>8[2:1]*>6[4:3],,,,,,,,,,,,,{4}4bpp4[8:7]*qq4[8:7],
E
