&title=∑
&artist=DJ Myosuke vs Gram vs t+pazolite
&first=0
&des=∑mbryø of ZGT chAMpion.
&des_4=∑M∀ Før the ZGT 3rd.
&des_5=∑mbryø of ZGT chAMpion.
&lv_4=13+
&lv_5=14+
&inote_4=(222)
{4},,,,,,,,6h[8:12]/2b<3[8:10],,,,,,,,1<5[8:10]*>5[8:10],,,,,,,,7V15[8:10]/3V51[8:10],,,,,,,,6pp7[8:10]*qq5[8:10],,,,,,,,
{4}6h[8:12]/4xp8[8:3],,,,8q5[8:3],,,,3h[8:12]/5q1[8:3],,,,1p4[8:3],,,,
{8}2,,2,,4,,4,,5,,5,,7,,7,,1,1,8,8,2,2,7,7,{16}3x,6x,3x,6x,3x,6x,3x,6x,3x,6x,3x,6x,3x,6x,3x,6x,{4}3x<5v7>1[8:10]*<5v7>1[8:10],,,,,,,,
{8}72,,1,,1,,8,8,21,,34,,5h[8:2]/6h[8:2],,,,27,,8,,8,,1,1,78,,65,,4h[8:2]/3h[8:2],,,,
27,,1,,8,,27,3,45,,35,,46,,72,,18,,7,,1,,26,26,2V48[8:4]/6V48[8:4],,,,,,,,
1pp4[8:12],,8,,8,,8,,7,,7,,6,,5,,5pp8[8:12],,4,,4,,4,,3,,3,,2,,2,,
1-5[8:1],,8,,7-4[8:1],,1,,2-5[8:1],,8,,8-4[8:1],,1,,
2,2,4,4,5,5,7,7,1,1,1,1,1,,1,,
1x-5[8:1],,7x-3[8:1],,2x-5[8:1],,8x-4[8:1],,3x-7[8:1],,6x-1[8:1],,2x-5[8:1],,7x-3[8:1],,1x-4[8:1],,8x-5[8:1],,2x-7[8:1],,6x-3[8:1],,E2/B2,,E6/B6,,E4/B3,,,,
8x-4[8:1],,2x-6[8:1],,7x-4[8:1],,1x-5[8:1],,6x-2[8:1],,3x-8[8:1],,7x-4[8:1],,2x-6[8:1],,8x-5[8:1],,1x-4[8:1],,7x-2[8:1],,3xw7[8:1],,Cf,,,,,,,,
64,,12,,73,,61,,35,,18,,57,,12,12,12,,71,,24,,36,,45,45,45,,{16}18,,18,,18,,,,36,,,,B3/E4,,B6/E6,,C,,,,18,,,,24,,24,,24,,,,24,,,,17,,,,1,,1,,8,,8,,1,8,1,8,1,8,1,8,1qq6[8:4]*pp4[8:4],,,,,,,,,,,,,,,,
2-8[8:2],,,,,,,,6-4[8:2],,,,,,,,1h[16:1],,,1h[16:1],,,1,,7,8,7,,2,1,2,,
7-5[8:2],,,,,,,,3-1[8:2],,,,,,,,4h[16:1],,,4h[16:1],,,4,,6,5,6,,3,4,3,,
2x,5,2,5,2,5,2,5,2,5,2,5,2,5,2,5,2,5,2,5,2,5,2,5,1x-4[8:1],,,,,,,,
7x,3,7,3,7,3,7,3,7,3,7,3,7,3,7,3,7,3,7,3,7,3,7,3,8x-5[8:1],,,,,,,,
1x,2,3,4,5,6,7,8,1,2,3,4,5,6,7,8,1,2,3,4,5,6,7,8,1x-5[8:1],,,,,,,,
8x,7,6,5,4,3,2,1,8,7,6,5,4,3,2,1,8,7,6,5,4,3,2,1,8x-4[8:1],,,,,,,,
{8}1,,2,,2,,8,8,E2,,E3,,E4,,E5,,8,,7,,7,,1,1,E8,,E7,,E6,,E5,,
4,,3,,3,,5,5,E4,,E3,,E2,,E1,,5,,6,,6,,4,4,5x-8-5[8:4]*-2-5[8:4],,,,,,,,
37,,18,,26,,45,,78,,65,,43,,17,,
62,,81,,73,,54,,21,,34,,56,,87,,
2x/3x,,65,,17,,43,,25,,47,,38,,21,,
76,,34,,82,,56,,7V15[8:4]/4V26[8:4],,,,,,,,
{16}47,,,,47,,,,26,,,,26,,,,7-4[8:1],,,,3-8[8:1],,,,5-1[8:1],,,,,,,,
82,,,,82,,,,53,,,,53,,,,2-5[8:1],,,,6-1[8:1],,,,4-8[8:1],,,,,,,,
7,,7,,2,,2,,5,,5,,5,,,,1,,1,,6,,6,,2,,2,,7,,,,
1,8,1,8,1,8,1,8,1,8,1,8,1,8,1,8,1x,2x,3x,4x,5x,6x,7x,8x,1x,2x,3x,4x,5x,6x,7x,8x,5b/1hx[8:8],,,,,,,,,,,,,,,,
{4}6x-8-5-2-4[8:10],,,,,,,,6x-8v6V84[8:10],,,,,,,,7x>7[8:10]/3hx[8:12],,,,,,,,8x<8[8:10]*<8[8:10],,,,,,,,7x-5v4-2[8:10]*-5v4-2[8:10],,,,,,,,4x-1-6[8:10]/7x-3[8:10],,,,,,,,7xpp8-5[8:10]*pp8-5[8:10],,,,,,,,6h[8:12]/1x-5v7-3b[8:10],,,,,,,,
{1}1h[4:2]/2h[4:6],3h[8:10],
{2}6h[8:6],5h[4:2],8w4[16:6],,
{1}8h[4:2]/7h[4:6],6h[8:10],
{2}3h[8:6],4h[4:2],1w5[16:6],,
{8}3h[4:2],,,,2,3,1/4,,6h[4:2],,,,7,6,5/8,,
{8}3h[16:6],,,4,2/5,,1/6,,7/8,,1/2,,3/6,,,,
{8}8h[4:2],,,,7,8,1/6,,1h[4:2],,,,2,1,3/8,,
{8}6,,3,4,,2/5,,4/7,,1,8,1,8,,2/7,,
{24}1bx/8bx,2x/7x,3x/6x,4hx[8:27]/5hx[8:27],,,,,,,,,,,,,,,,,,,,,
{4},,,,,,,,,,,,
{8}3h[8:2],,4,1,6h[8:2],,5,8,3h[8:2],,4,1,2/3,,5/8,,
6h[8:2],,5,8,3h[8:2],,4,1,6h[8:2],,5,8,6/7,,1/4,,
3h[8:2],,1,8,2/7,,3/6,,{16}5,4,5,4,5,,,,
3/6b,,,,,,,,
{16}3,,,8,,,1,,6,,,1,,8,,,
{8},1/8,1/8,1/8,1/8,,2/7,,
{8}6h[8:2],,5,8,3h[8:2],,4,1,6h[8:2],,5,8,7/6,,4/1,,
3h[8:2],,4,1,6h[8:2],,5,8,3h[8:2],,4,1,3/2,,8/5,,
6h[8:2],,8,1,7/2,,6/3,,{16}4,5,4,5,4,,,,
6/3b,,,,,,,,
{16}3,,,8,,,1,,6,,,1,,8,,,
2,,,2,,,8,,7-4[8:1],,,,,,,,
{8}
2h[8:4],,3,3,3,,8,,E8/E2,,E7/E3,,E6/E4,,E5,,
7h[8:4],,6,6,6,,1,,E2/E8,,E3/E7,,E4/E6,,E5,,
3h[8:4],,5,5,5,,6,,{16}2,,,2h[16:5],,,7,,7h[8:2],,,,,,,,
{16}2h[16:3],,,3h[16:3],,,4h[8:1],,7h[16:3],,,6h[16:3],,,5h[8:1],,
1h[16:3],,,2h[16:3],,,3h[8:1],,8hx[16:4],,,,,,,,
25,,,,3,4,3,4,3,,,,6,5,6,5,6-1[8:1],,,,2-5[8:1],,,,7,,,,7,,,,
6,5,6,5,6,,,,3,4,3,4,3-8[8:1],,,,7-4[8:1],,,,2-6[8:1],,,,8,,,,8,,,,
1,8,1,8,1,,,,3,5,3,5,3-7[8:1],,,,6-2[8:1],,,,4w8[8:1],,,,,,,,,,,,
26,,,1,,,1,2,3,4,,8,,,8,7,6,5,,1,,,1,2,3,4,,,8,,,,
{16}E1,E2,E3,E4,E5,E6,E7,E8,E1,E2,E3,E4,E5,E6,E7,E8,E1,E2,E3,E4,E5,E6,E7,E8,Cf/E1,,,,,,,,
A7,A6,A5,A4,A3,A2,A1,A8,A7,A6,A5,A4,A3,A2,A1,A8,A7,A6,A5,A4,A3,A2,A1,A8,A7/Cf,,,,,,,,
1x,2,3,4,1x,8,7,6,1x,2,3,4,1x,8,7,6,1x,2,3,4,1x,8,7,6,5x/Cf,,,,,,,,
8x,7,6,5,8x,1,2,3,8x,7,6,5,8x,1,2,3,8x,7,6,5,8x,1,2,3,4x/Cf,,,,,,,,
3,4,3,4,3,,,,6,5,6,5,6,,,,1,8,1,8,1,8,1,8,1,8,1,,,,,,
2,4,2,4,2,,,,7,5,7,5,7,,,,4,5,4,5,4,5,4,5,4,5,4,,,,,,
2,4,2,4,2,4,2,4,2,4,2,4,2,,,,2,3,2,3,2,3,2,3,2,,,,,,,,
6,4,6,4,6,4,6,4,6,4,6,4,6,,,,5,,5,,3,,3,,7,,7,,2,,,,
{32}8bqq5[8:26]/1bpp4[8:26],7x/2x,6x/3x,5x/4x,,,,,,,,,,,,,,,,,,,,,,,,,,,,,
,,,,,,,,,,,,,,,,,,,,,,,,,,,,,,,,,,,,,,,,,,,,,,,,,,,,,,,,,,,,,,,,,,,,,,,,,,,,,,,,,,,,,,,,,,,,,,,,,
(333){4}C/E2/E4/B8/B5/B1/B4,,,,,,,,
E
&inote_5=(222)
{4},,,,,,,,{32}1bx/8bx,2x/7x,3hx[32:54]/6x,5x,4x<5v8>1[8:9],,,,{8},,,,,,,,,,,,,,7>1v4<6b[8:10]/2h[8:12],,,,,,,,,,,,,,,,
1p7[8:10]/5p3b[8:10],,,,,,,,,,,,,,,,8qq5[8:10]/4-1[8:2],,,,,,,,2-6[8:2]b,,,,,,,,
5x/3x,,3,,3,,3,,B7/B6/E7/3,,3,,4,,5,,4x/6x,,6,,6,,6,,E3/B2/B3/6,,6,,7,,81,,2,2,4,4,3,3,5,5,4,4,7,7,3,3,6,6,
{16}1x,2x,3x,4x,5x,6x,7x,8x,1x,2x,3x,4x,5x,6x,7x,8x,{32}E2,E3,E4,E5,E6,E7,E8,E1,E2,E3,E4,E5,E6,E7,E8,E1,E2,E3,E4,E5,E6,E7,E8,E1,E2,E3,E4,E5,E6,E7,E8,1xs5[8:12]/Cf,,,,,,,,,,,,,,,,,,,,,,,,,,,,,,,,,,,,,,,,,,,,,,,,,,,,,,,,,,,,,,,,,
{8}6h[8:14]/3,,2,,1,,8,8,B1,,B2,,B3,,C,,3h[8:14]/6,,7,,8,,1,1,B8,,B7,,B6,,C,,7>6[8:10]/3,,2,,2,,8,8,E1,,E3,,E5,,C,,2<3[8:11]/6,,7,,7,,1,1,1p3[8:3],,,,,,,,
2x/6x<1[8:4],,2,,3,,4,,4x-1[8:4]/1x,,8,,7,,6,,2x>5[8:4]/5x,,6,,7,,8,,5x-1[8:4]/1x,,8,,7,,6,,2,2,5,5,3,3,7,7,3,3,4,4,5,5,6,6,{16}1,7,1,7,2,8,2,8,3,4,3,4,2,5,2,5,3,7,3,7,4,6,4,6,5,7,4,6,3,5,2,4,
1b-5b[8:1],,,,1/7b-4b[8:1],,,,7/2b-5b[8:1],,,,2/8b-4b[8:1],,,,8/3b-8b[8:1],,,,3/6b-3b[8:1],,,,6b/2,,,,8/1b,,2/7b,,6/3b<6b[8:1],,,,3/8b-4b[8:1],,,,2/8b,,,,2x/5x,3x/6x,4x/7x,8x/5x,1bx-6[8:1],,,,5-2b[8:1],,,,7-4[8:1],,,,1-4b[8:1],,,,
7/1b-6[8:1],,,,3/1b-4b[8:1],,,,8/1b-6[8:1],,,,2/1b-4b[8:1],,,,7/1b<6[8:1],,,,3/1b>4b[8:1],,,,1b-5[8:1],,,,1b,,2,,2>5[8:2],,,,5<8[8:2],,,,8>4[8:2],,,,4w8[8:1],,,,,,,,,,,,2x/8x,,2x/8x,,2b/8b-4[8:1],,,,
8b-6[8:1],,1,,8-4[8:1],,2,,8-6[8:1],,1,,8-4[8:1],,2,,8<5[8:1],,1,,8-4[8:1],,2,,8,,,,1b,,1b,,1b-3[8:1],,8,,1-5[8:1],,7,,1-3[8:1],,8,,1-5[8:1],,7,,18,,8,,8,,,,2,7,2,7,2,,,,35,,,,6h[16:1]/4h[16:1],,6h[16:1]/4h[16:1],,6h[16:1]/4h[16:1],,,,57,,,,6h[16:1]/7h[16:1],,6h[16:1]/7h[16:1],,6h[16:1]/7h[16:1],,,,5-1[8:1]/8-4[8:1],,,,58,,,,2,,2,,7,,7,,1,8,1,8,1,8,1,8,1pp5[8:3]*qq5[8:3],,,,,,,,,,,,,,,,
3h[8:2]/5,,,,,,3,4,2/5h[8:2],,,,,,5,4,5,,,5,,,5,,3,4,3,,6,5,6,,6h[8:2]/4,,,,,,6,5,7/4h[8:2],,,,,,4,5,4,,,4,,,4,,6,5,6,,3,4,3,,2x,5,2,5,2,5,2,5,2,5,2,5,2h[8:1],,,,1x,6,1,6,1,6,1,6,7h[8:1]/2h[8:1],,,6h[8:1]/3h[8:1],,,5h[16:1]/4h[16:1],,3x,4,2,5,3,4,2,5,3,4,2,5,3,4,2,5,1x,6,1,6,1,6,1,6,1h[16:4],,,{32}A7,E7,B6,B5,E5,,,,,,{16}1x,4,1,4,1,4,1,4,1,4,1,4,1h[16:3],,,,8x,5,8,5,8,5,8,5,8,5,6h[8:1]/1h[8:1],,,6h[8:1]/1h[8:1],,,61,7x,8,7,8,7,8,7,8,7,8,7,8,7,8,7,8>1>2>3<4<5<6<7>8b[8:4],,,,,,,,,,,,,,,,
{16}1bx,,,,6,,,,6,,,,2,,2,,1,,,,E2,,,,E3,,,,E4,,,,45,,,,3,,,,3,,,,7,,7,,8,,,,E8,,,,E7,,,,E6,,,,
13,,1,,24,,2,,35,,3,,46,,4,,57,,5,,68,,6,,71,,7,,82,,8,,1,2,3,4,8,7,6,5,2,3,4,5,7,6,5,4,1b<7v5>3[8:3]/3b<5v7>1[8:3],,,,,,,,,,,,,,,,
{16}25,,3,4,3h[8:1],,6,5,6h[8:1],,3,4,2h[8:1],,6,5,7<4[8:1],,4,4,7>2[8:1],,3,3,7-3[8:1],,4,4,7,,,,
5,,6,5,7h[8:1],,3,4,2h[8:1],,7,5,8-6[8:1],,,,8-2[8:1],,4,4,8<6[8:1],,5,5,8>2[8:1],,3,3,8,,,,4b,,,,8-6[8:1],,8,,8v3[8:1]/2-6[8:1],,,,82,,,,1-5[8:1],,2,,7-4V61[8:3],,6,,2-6[8:1],,3,,2,,,,8qq4[8:5],,,,1,,1,,2-6[8:1],,,,2-4-1-5-8-6b[8:6],,,,2,,,,,,,,,,,,,,,,
7-4[8:1]/2-5[8:1],,,,7-1[8:1]/2,,,,7/2-6[8:1],,,,2/8-5[8:1],,,,8/2-8[8:1],,,,2-5[8:1]/7-5[8:1],,,,27,,,,78,,61,,2b>5[8:1]/5b-1[8:1],,,,2-6[8:1]/5,,,,7-1[8:1]/2,,,,7/3<6[8:1],,,,3/7>2[8:1],,,,7/4-1[8:1],,,,4/8w4[8:1],,,,8b,,,,
3x,,3x,,5x,,5x,,2,6,2,6,17,,,,8,8,8,8,8,8,8,8,7b/1,,2b/6,,3/5b,,,,4,3,2,1,5,6,7,8,3,2,1,8,6,7,8,1,3,4,5,6,7/4,8,1,2,6,5,4,3,2/5,1,8,7,6bs2[8:4]/2bz6b[8:4],,,,,,,,,,,,,,,,
{4}4x-1-3[8:4]*-7-5[8:4],,,,6xv4[8:4]*V84[8:4],,,,2xqq1-4>3[8:5],,,,1x>5[8:4]*<5[8:4],,,,2x-4v5-7[8:5]*-4v5-7[8:5],,,,4x-1-6b[8:4]/3x-7b[8:4],,,,7xpp8-5b[8:5],,,,
{32}1x-5b[8:4]/3x-7b[8:4],,,,,,,,,,,,,,,,,,,,,,,,,,,,,,,,
{4}
1xz5[8:10]/8xs4[8:10],,,,,,,,8xv5[8:4]/2xv5[8:4],,,,1xv4[8:4]/7xv4[8:4],,,,8x-5q4[8:5],,,,8xp1-4<5[8:5],,,,{8},,6bx,6bx,6bx,6bx,6bx,6bx,6bxqq5<1b[8:4],,,,,,,,
{4}6h[1:1],,5,,3h[1:1],4,4,,7h[1:1],,6,,4h[1:1],5,5,,5h[1:1],,4,,2h[1:1],3,3,,
{8}8h[1:1],7,7,7,7,7,7p2[8:4],7,7,,,,,,1,8,{4}7h[1:1],,8,,2h[1:1],,1,,
{8}7<3[4:2],,,2,3q8[4:2],,1,,1h[8:5],,,,,,8,1,
{4}2h[1:1],3,4,5,7h[1:1],6,5,4,
{8}3,3,6,6,4,4,5,5,,45,45,36,4-1[8:1]/5-8[8:1],,45,,
{8}2hx[32:12]/7hx[32:15],,,,{32}1b,2,3h[16:6],,,,,,,,,,,,,,7b,6b,5bh[16:14],,,,,,,,,,,,,,2b,3b,4bh[16:6],,,,,,,,,,,,,,3b/6b,2b/7b,8bh[32:30]/1bh[32:30],,,,,,,,,,,,,,,,,,,,,,,,,,,,,,{8},,,,1h[4:1]/8h[4:1],,,,
{16}1-5[8:1]/8,,,,1/6-1[8:1],,,,64,,,,84,73,62,51,4/8-3[8:1],,,5,8,,6,,6-2[8:1],,,,6/1>4[8:1],,,,17,,,,8,8,,1,8<5[8:1],,,,8,,,,2-6[8:1]/1,,,,2/8-4[8:1],,,,8/1>4b[8:1],,,,1b/8x,,,,8-4[8:1]/1,,,,8/3-8[8:1],,,,35,,,,15,26,37,48,5/1-6[8:1],,,,1/5-2[8:1],,,,5/8-4[8:1],,,,18,,,,2bh[16:2]/5bh[16:2],,,7bh[16:2]/1bh[16:2],,,6bh[16:1]/4bh[16:1],,3bh[16:2]/2bh[16:2],,,7bh[16:2]/8bh[16:2],,,1b/5b,,15,2,3,4,51,6,7,8,15,,,,5<8[8:1],,,,5/2-6[8:1],,,,2/1-4[8:1],,,,18,,,,5,6,7,8,1-3[8:1]*-4[8:1],,,,1-7[8:1]*-6[8:1],,,,1-5[8:1],,,,1,,,,
3/8,,2,1,2,,3,,1/6,,7,8,7,,6,,3/8V62[8:2],,2,1,2-5[8:1],,3,,1bx,,,,1h[16:1],,1h[16:1],,1x-5[8:1]/8,,,,1/6-1[8:1],,,,64,,,,84,73,62,51,4/8<5[8:1]*>3[8:1],,,,8w4[8:1],,,,8b,,,,2h[8:1]/6h[8:1],,,,3bh[16:2]/4bh[16:2],,,8bh[16:2]/6bh[16:2],,,1bh[16:1]/2bh[16:1],,6bh[16:2]/5bh[16:2],,,1bh[16:2]/3bh[16:2],,,8b/7b,,2-5[8:1]/6-1[8:1],,,,,,,,7-4[8:1]/3-8[8:1],,,,,,,,
{16}
1h[16:1]/5h[16:1],,1h[16:1]/5h[16:1],,1h[16:1]/5h[16:1],,1h[16:1]/5h[16:1],,
2h[16:1]/6h[16:1],,2h[16:1]/6h[16:1],,2h[16:1]/6h[16:1],,2h[16:1]/6h[16:1],,
3h[16:1]/5h[16:1],,3h[16:1]/5h[16:1],,4h[16:1]/6h[16:1],,4h[16:1]/6h[16:1],,
7h[16:1]/5h[16:1],,7h[16:1]/5h[16:1],,6h[16:1]/4h[16:1],,6h[16:1]/4h[16:1],,
7h[16:1]/3h[16:1],,7h[16:1]/3h[16:1],,7h[16:1]/3h[16:1],,7h[16:1]/3h[16:1],,
8h[16:1]/4h[16:1],,8h[16:1]/4h[16:1],,8h[16:1]/4h[16:1],,8h[16:1]/4h[16:1],,
1h[16:1]/3h[16:1],,1h[16:1]/3h[16:1],,8h[16:1]/2h[16:1],,8h[16:1]/2h[16:1],,
7h[16:1]/1h[16:1],,7h[16:1]/1h[16:1],,6bx/8bx,,,,
1bx,7,1,7,1b,7,1,7,2b,8,2,8,2b,8,2b,8,3b,4,3,4,3b,4,3b,4,2b,5,2,5,1bx/6bx,,,,
3b,4,2,6b,5,7,3b,4,2b,6,5,7b,1,8,2b,7,3b,5,2,6b,4,7,3b,5,2b,6,4,7,1b,,,,
{16}6,5,6,5,6,,3,4,3,4,3,,5,4,5,,7,8,7,8,7,,2,1,2,1,2,,5,4,5,,
{16}7,5,7,5,7,,2,4,2,4,2,,1,8,1,,6,5,6,5,6,,{24}2x,3,4,1bx,,,8x,7,6,1bx,,,1bx,,,
{16}4,3,4,3,4,,6,5,6,5,6,,4,5,4,,2,1,2,1,2,,7,8,7,8,7,,{32}1x,2x,3x,4x,5x,6x,7x,8x,{16}1x-5[8:1]/5x-1[8:1],,,,,,,,7-3[8:1]/3-7[8:1],,,,,,,,1-5[8:2],,,,5w1b[8:2],,,,,,,,,,,,
A8,E1,E2,A2,A7,B7,B3,A3,A6,E6,E5,A4,Cf,,,,
E1/A1/D1,E5/D5/A5,A3/E3/D3,A7/D7/E7,E2,E6,E4,E8,E1/A8/D1,E5/D5/A4,A2/E3/D3,A6/D7/E7,C,,,,
A1,E1,E8,A7,A2,B2,B6,A6,A3,E4,E5,A5,Cf,,,,
E1/A8/D1,E5/D5/A4,A6/E7/D7,A2/D3/E3,E8,E4,E6,E2,E1/A1/D1,E5/D5/A5,A7/E7/D7,A3/D3/E3,C,,,,
{16}15,2,3,4,51,6,7,8,
{24}1x,D2,A2/B2,D3/E3,E4/A3,B4/E5,B5/A5/C/B6/E6/B7/E7,,,,,,
{32}1,2,3,,8,7,6,,2,3,4,,7,6,5,,
{16}4b/8b,,,6b/2b,,,3b/7b,,
{16}48,3,2,1,48,7,6,5,
{24}4x,E4,A3/B3,E3/D3,A2/E2,A1/E1,A8/E8/B8/B7/E7/B6/C,,,,,,
{32}1,2,3,,8,7,6,,2,3,4,,7,6,5,,
{16}4hb[16:2]/8bhb[16:2],,,6bhb[16:2]/2bhb[16:2],,,3b/7b,,
{16}1,1,1,1,1,1,1,1,
{32}1x-5[8:1]b,2,3,4,1x,8,7,6,1bx,,,,,,,,
{16}7x,8,6,1,7,8,6,1,
{64}7,D7,6,D6,5,D5,4,D4,3,D3,2,D2,1,D1,8,D8,
{4}7b/3b,
{16}8,8,8,8,8,8,8,8,
{32}8x-4[8:1]b,7,6,5,8x,1,2,3,8bx,,,,,,,,
{16}2,1,3,8,2,1,3,8,
{32}2bx,3,4,,1x/2x,,,,1bx/2bx,8,7,6,,,,,
{24}1/5h,2,3,4,5,6,7/3h,8,1,2,3,4,5/1h,6,7,8,1,2,3/7h,,,,,,
{32}E2,E3,E4,E5,E6,E7,E8,E1,E2,E3,E4,E5,E6,E7,E8,E1,{16}E2/B2,,,B7/E7/B6,,,B2/B3/E3,,
{24}8/4h,7,6,5,4,3,2/6h,1,8,7,6,5,4/8h,3,2,1,8,7,6/2h,,,,,,
{24}8,1,2,8,7,6,1,2,3,7,6,5,
{32}E3,B2,B1,E1,E6,B6,B7,E8,
{16}8x,8x,8x,8x,
{32}8bx,1bx/7bx,2bx/6bx,3bx-5v7-1[16:44]b/5bxv7-1[16:44],
{64}4bx/B4f,,,,,,,,
{4},,,,,,,,,,,,,,
(333)2x-6[8:1]b,
{32},B2,C,B6,
E
