&title=BlazinG AIR
&artist=kanone
&first=1.06
&des=BlazinG HOshINO
&des_5=BlazinG HOshINO
&lv_5=14
&inote_5=(150)
{16}1bpp4[2:1],,,8,,,7,,,6,,,5h[4:1],,,,4qq1[2:1],,,5,,,6,,,7,,,8,,7,6,
{16}5pp8[2:1],,,4,,,3,,,2,,,1h[4:1],,,,8qq5[2:1],,,1,,,2,,,4,3,2,1,8,7,6,
{16}8b/5b>2[8:1],,,6,5,,7,,8-2[8:1],7,6h[8:1],,8,,,,
{16}1/4<7[8:1],,,3,4,,2,,1-7[8:1],2,3h[8:1],,1,,4,3,
{16}2,,3/4,,5/6,,7/8,,
{32}1>8[4:1],,8,,2,,7,,E1/1x,E2,E3,E4,E5,E6,E7,E8,
{4}E1/Chf[4:3],,1w5b[8:1],1bx,
{16}2h[8:1],,4,4,3>1[8:1],,5h[8:1],,3-5[8:1],8,,8,3,,7,,
{16}7h[8:1],,5,5,6<8[8:1],,4h[8:1],,6-4[8:1],1,,1,6,,2,,
{16}3v8[8:1],,2,4,3,,7h[8:1],,1V74[4:1],6,,6,1,,5,,
{16}6v1[8:1],,7,5,6,,2h[8:1],,8V25[4:1],3,,3,8,,4,,
{16}3>8[8:1],,4,4,3,,5,,6-4[8:1],4,,4,6,,2h[8:1],,
{16}6<1[8:1],,5,5,6,,4,,3-5[8:1],5,,5,3,,7h[8:1],,
{16}2-4[8:1],,1,1,2,,8,,7>1[8:1],5,,5,7,,
{24}5,4,3,
{16}2b-8[8:1]/6b,,1,4,2b,,
{32}7,6,5,4,
{16}1x,1,4xq1[8:1],5,
{48}A1/6bxh[8:1],D2,A2,D3,A3,D4,A4,,,,,,
{16}7h[8:1],,2,2,6v1[8:1],,2,,6,4,,4h[16:3],1,8,7,6,5/2q6[8:1],,3,4,2,,8,,7,7h[16:3],,5,5,6,4,7,
{16}2h[8:1],,7,7,3v8[8:1],,7,,3,5,,5h[16:3],8,1,2,3,4/7p3[8:1],,6,5,7,,1,,2,2h[16:3],,4,4,3,5,2,
{8}6bp4[2:1]*p3[2:1],,,,,,,7,
{16}7bpp4[2:1],,,,,,4bx,,,4bx,,,3bx,,2bx,,
{16}1b,1,7,7,3,3,1,1,5b,5,7,7,1b,1,3,3,
{8}2<8-4<6b[2:1],,5,6,7-3[8:1],,C,,
{16}2h[8:1],,1,,3/8,,2,,1-5[8:1],,5V38[4:1],,1,,,,7-3[8:1],,6,,7,,1<6[8:1],,2>5[8:1],,1,,2,,,,
{16}7h[8:1],,8,,6/1,,7,,8-4[8:1],,4V61[4:1],,8,,,,2-6[8:1],,3,,2,,8>3[8:1],,7<4[8:1],,8,,7,,,,
{16}2h[8:1],,A8/E1,,3,3,4,2>5[8:1],,1,8-4[8:1],2,6h[8:1],,B8,,
{16}7h[8:1],,A1/E1,,6,6,5,7<4[8:1],,8,1-5[8:1],7,3h[8:1],,B1,,
{16}2h[8:1],,A7/B7,,3,3,5>2[8:1],4h[8:1],,7h[16:1],5,,
{24}6h[8:1],,,8,1,2,3b-8[8:1]/5bh[4:1],,,,,,,,,4,5,6,
{16}7b/1b,1,,8b,
{24}2,3,4,8b,7,6,
{16}4bV25[4:1]/5b,,,,4/5V38[4:1],,6,,7-3b[8:1],,,,7,,1V74[4:1],1,,,1/2,,2>5[8:1],,1,1,2<7[8:1],,E7/B6,,2,,5,5,
{8}1-5[8:1],6,1-6[8:1]/7,8,1-4[8:1]/3,2,1/7-2[8:1],8,3-6[8:1]/7,4,3/8,1,8v5[8:1]*v3[8:1],B6/B2,8,,
{16}7bq1[2:1]/2b,,3h[8:1],,,,4h[8:1],,,,5h[8:1],,,,1b,,1b-5<8[4:1]/4b,,4h[8:1],,,,2b,,
{24}2,3,4,5h[8:1],,,
{48}E7,B6,B5,B4,B3,E3,,,,,,,
{16}1b,8,1,8,2,7,2,7,3b,6,3,6,
{24}4,5,4,5,4,5,
{16}3,3,1,1,4,8,5,7,
{32}3h[8:1],,,,7,2/6,1/5,4/8,3-6[8:1]/7-2[8:1],,,,,,,,
{384}3bxq5>1V35[4:13],7bxq1<5V71b[4:13],Cf,,,,,,,,,,,,,,,,,,,,,,,,,,,,,,,,,,,,,,,,,,,,,,,,,,,,,,,,,,,,,,,,,,,,,,,,,,,,,,,,,,,,,,,,,,,,,,
{4},,,,,,,,,,,,,,,
{16}2h[16:3],,,E1/B8,,3,3h[8:1],,7h[16:3],,,E1/B1,,6,6h[8:1],,
{16}3h[16:3],,,1h[16:3],,,8h[8:1],,6h[8:1],,E1,,E3,B3,,7/B4,
{16},7h[16:3],,,5h[8:1],,6,4,,4h[16:3],,,D8,D7,D6,D5,
{16}1x,1x,B4,E4,2x,2x,B6,B5,3x,3x-8[8:1],,8V25[16:3],7-4b[8:1],6,5,,
{16}E3f/E7f,,,,6x,,,,2h[16:3],,,4,A1/D1,,5,,6h[16:3],,,8,D5/A5,,
{24}A1,D2,A2,
{16}D3/6p4[4:1],,7,,6,3,,2h[16:5],
{16},,4,,5,,6,3,,4h[8:1]/7h[16:7],,,E5,B4,B3,E3,
{16}2x<7[8:1],,5,5,2,,
{24}D5,A5,D6,
{16}A6/1xw5[8:1],,,,1,,,,
{16}2h[16:3],,,4,A1/D1,,6,,7h[16:3],,,5,A8/D1,,4,,3h[16:3],,,1,D5/A4,,
{24}A8,D8,A7,
{16}D7/3q5[4:1],,2,,3,6,,7,,7h[16:3],,,4h[8:1],,6,3,,3h[16:3],,,E5,B5,B6,E7,
{16}3h[8:1],,7,7h[8:1],,1b,1b,1b,1bs5[8:1]*z5[8:1],,,,1b,,,,
{16}2/D1,,2,,2/E8,,2,,3/7-2[8:1],,3,,3h[8:1]/7b,,,,5/E4,,5,,5/E3,,5,,6-1[8:1]/2,,6,,2h[8:1]/6b,,,,
{16}8/E4,,8,,8/E5,,8,,7/5-8[8:1],,7,,5b/7h[8:1],,,,
{16}1/E6,,1,,1/E5,,1,,2/4-1[8:1],,2,,4b/2h[8:1],,,,
{16}3,1,4,8,5,7,4,6,3-8[8:1],5,3,4,3b,,,,1,7,2,6,3,5,2,4,2-5[8:1],1,2,1,2b,,,,
{32}6,,6h[8:1],,8,1,2h[16:1],,7,,7h[8:1],,2,3,4h[8:1],,
{16}1x-5[8:1],,1x,4x,1bx,,,,
{8}2bv5[8:1]/6bv1b[8:1],,2/6,,8w4[8:1],,8b/Cf,,
{16}8-6[8:1]/2,,,3,8-4[8:1],2,2h[16:1],,1/8-6[8:1],,,2,8-4[8:1],3,3h[16:1],,8-6[8:1]/4,,,3,8-4[8:1],2,2,,8-6[8:1]/1,,2,,8-4[8:1]/3,3,,4,
{16}8-3[8:1],,3,,8-4[8:1]/2,,1,1,8-5[8:1],2,,,8-6[8:1]/1,2,3,4,8-2[8:1],,3,3,8-5[8:1],,4,,8/3,3,,2,7h[4:1],4,3,2,
{16}1-3[8:1],,,6,1-5[8:1],7,7h[16:1],,8/1-3[8:1],,,7,1-5[8:1],6,6h[16:1],,1-3[8:1]/5,,,6,1-5[8:1],7,7,,1-3[8:1]/8,,7,,1-5[8:1]/6,6,,5,
{16}1-6[8:1],6,,,1-5[8:1]/7,,8,8,1-3[8:1],7,,,1/8,7,6,5,
{16}4b/2b,,3/7,3b/7bh[16:3],,2bx,2bx,2bx,2bx-6b[8:1]/8z4[8:1],,,,2b/Cf/8b,,,,
{16}2,4,3,6,5,7,1,8,2,1,3,8,4,7,3,3,7,5,6,3,4,2,8,1,7,8,6,1,5,2,6,6,
{16}2,1,3,7,8,6,2,4,3,7,5,6,2,3,4,5,8,8,5,7,1,1,4,2,6,3,7,4,8,7,6,5,
{8}4bh[1:1]/2b-6-3-7[2:1],,,,,,,8b,
{16}8b-3[16:1],,,8b/6-1[16:1],,,6b/2-5[16:1],,,2b/8-4[16:1],,,8b,,3,,
{16}2bh[16:1],,4,3,6,6,
{24}2,3,4,
{16}5b/7bh[16:1],,5,6,
{32}3,4,5,6,7,8,1,2,
{16}3b/7bh[8:1],,2,2h[8:1],,4,3,5,4bh[16:1],2h[4:1],,6h[8:1],,,
{32}2/6,1/5,4/8,3/7,
{384}2bxp8>4<5<6<7>8[2:5],6bxp4<8>1>2>3<4b[2:5],,,,,,,,,,,,,,,,,,,,,,,,,,,,,,,,,,,,,,,,,,,,,,,,,,,,,,,,,,,,,,,,,,,,,,,,,,,,,,,,,,,,,,,,,,,,,,,
{4},,,,,,,,,,,
{16}1/Ch[8:3],,,2,,,3,,,4,5,3,6,2,7,1,Ch[32:1]/E1/B8/B1/B5/B4/E5,,,,
