&title=泰東ノ翠霞
&artist=bermei.inazawa/霜月はるか
&first=0.03
&des=Slask
&lv_5=13+
&inote_5=(90)
{4},,,,
{4},,,,
{4}6pp1[4:3],,,,4h[4:4],,,,3qq8[4:3],,,,5h[4:2],,B3/E3,
{32}4,,6,5,6,5,6,5,7qq1[4:3],,,,3,4,3,,{4},,,2h[16:13],,,
{16},4,6,8,
{32}2pp8[4:3],,,,6,5,6,,{4},,{16},7,7,6,5,,,,{32},,56,,4,5,4,5,3,4,2,4,3,,8,1,6,5,7,5,6,3,4,2,
{16}D1,,E8/3,4,D7,4,E6/3,3,D5,,D6,,D7,4,D8,,
{16}D1,,E2/6,,D3,5,E4/5,,D5,,D4,,D3,6,D2/6,5,
{16}D1/5x,,E8/3,4,D7,4,E6/3,3,D5,,D6,,D7/E7,3,D8/3,4,
{16}D1/E1/4x,,E2/5,,D3,5,E4/6,6,D5,,D4/5,6,D3,{32}5h[32:1],,5h[32:1]/D2,,5h[32:1],,
{16}D1,,E8/3,4,D7,4,E6/4,3,D5,,D6,,D7,4,D8,,{16}D1/E1,,E2/6,6,D3/E3,5,E4/5,6,D5/E5,,D4,,D3/E3,6,D2/6,5,
{16}D1/5x,,E8/3,4,D7,4,E6/3,3,D5,,D6,,D7,{32}3,,3/D8,,4,,
{16}D1/4,,E2/5,,D3,5,E4/6,6,D5,,D4/5,6,D3,{32}5h[32:1],,5h[32:1]/D2,,5h[32:1],,
{16}A7h[8:1]/3x,,E7h[8:1]/4,4,A6h[8:1],3,E6h[8:1]/4,,A5h[8:1],,E5h[8:1],,A4h[8:1],6,A3,,
{16}A7h[8:1],,E7h[8:1]/4,,A6h[8:1],3,E6h[8:1]/3,,A5h[8:1],,E5h[8:1],,A4h[8:1],7,A3/6,5,
{16}A2h[8:1]/6x,,E3h[8:1]/5,5,A3h[8:1],5,E4h[8:1]/6,7,A4h[8:1],,E5h[8:1],,A5h[8:1],3,A6/4,3,
{16}A2h[8:1],,E3h[8:1]/6,,A3h[8:1],5,A4/5,6,4xqq2-4<5[16:3]*-6<7v4[16:3],,,,,,{32},,,,
{16}3x-8[8:1],,5,4,7<4[16:2],6,6,,2h[4:1],,,,8,3,4,,{16}6<1[8:1],,73,,2>5[8:1],3,3,,6h[4:1],,,,5,7,3,4,
{16}2-6[8:1],,7,3,8>3[8:1],1,1,,7h[4:1],,,,5,6,4,5,{16}2V48[16:2],,65,,7-3[8:1],6,5,,1,,2h[8:1],,{32}5,,3,4,3,4,3,4,
{16}2x>5[8:1],,7,3,8-4[16:2],7,6,,3h[4:1],,,,6,5,8,,{16}3>8[8:1],,26,,7<4[8:1],6,6,,3h[4:1],,,,5,4,6,5,
{16}8-4[8:1],,7,3,8>3[8:1],1,1,,8<5[8:1],,,,5,4,3,2,{8}6h[8:1]/1,4h[8:1],2h[8:1],8h[8:1],B7h[8:4],B5h[8:3],B3h[8:2],B1h[8:1],B2/B6/B8/B4,,,,,,,{48},,,,
{48}27,36,{4}4bp6[8:5]/5bq3[8:5],,,,7<5p1[8:5]/2>4q8[8:5],,,,6xh[4:7]/2x,E5,C,E1,E2,E3,E4,5,3xh[16:30]/7x,E5/B5,E1/B1,,E1,E8,E7,{16},,5,,{4}6xh[16:29]/2x,E1,C,E5,E4,E3,E2,
{32},,3,5,3,4,2,,
{16}5/1b,5,5,5,2h[8:1]/5,5,5,5,5/4h[8:1],5,5,5,5/6h[8:1],5,5,5,5/E7/B7,5,5,5,E1/B1/5,5,5,5,E3/B3/5,5,5,5,5,52,53,54,
{16}5h[32:1]/6b,5h[32:1],5h[32:1],5h[32:1],5h[32:1]/4qq8[4:1],5h[32:1],5h[32:1],5h[32:1],5h[32:1]/4,5h[32:1],5h[32:1],5h[32:1],5h[32:1],5h[32:1],5h[32:1]/7,5h[32:1],5h[32:1]/1-6[8:1],5h[32:1],5h[32:1],5h[32:1],5h[32:1]/1>4[8:1],5h[32:1],5h[32:1],5h[32:1],5h[32:1]/1,5h[32:1],5h[32:1],5h[32:1],5h[32:1],5h[32:1]/7,5h[32:1]/6,5h[32:1]/4,5h[32:1]/3b,5h[32:1],5h[32:1],5h[32:1],5h[32:1]/4-2[12:1],5h[32:1],5h[32:1],5h[32:1],5h[32:1]/4-8[8:1],5h[32:1],5h[32:1],5h[32:1],5h[32:1]/4,5h[32:1],5h[32:1],5h[32:1],5h[32:1]/6<1[8:1],5h[32:1],5h[32:1],5h[32:1],5h[32:1]/6,5h[32:1],5h[32:1],5h[32:1],5h[32:1]/2z6[4:1],5h[32:1],5h[32:1],5h[32:1],5h[32:1],5h[32:1],5h[32:1],5h[32:1],5h[32:1]b,5h[32:1],5h[32:1]/B4,5h[32:1]/B3h[16:2],5h[32:1],5h[32:1],5h[32:1]/E2,5h[32:1]/E1h[16:2],5h[32:1],5h[32:1],5h[32:1]/D8,5h[32:1]/D7h[16:2],5h[32:1],5h[32:1],5h[32:1]/B6,5h[32:1]/Ch[16:9]f,5h[32:1],5h[32:1],5h[32:1],5h[32:1],5h[32:1],5h[32:1],5h[32:1],5h[32:1],E7/E8/E1/E2/E3/B7/B8/B1/B2/E5/B4,,,,,,,,6x>3[4:7],,,,
