&title=喵斯摇
&artist=DJ怪哥 & DJ鹏哥 (feat.春哥&渊神)
&first=0.87
&des=广告位招租:迪拉熊打舞萌 一刀999 点击就送最强高抗高伤神装角色!
&des_5=广告位招租:迪拉熊打舞萌 一刀999 点击就送最强高抗高伤神装角色!
&lv_5=13
&inote_5=(140)
{16}B6/Chf[4:3],,,,B3,,,B5,B4,,E5,,,,,,
{8}2-5[8:1]/7,1,2/7-4[8:1],8,
{16}2<7[8:1]/7,,3,5,2,,6,,
{8}5-1[8:1],6,5/7,8,1w5[8:1]/2,,1,,
{16}2q6[8:1],,,1,2,,8,,7-4[8:1],,1-5[8:1],,7>2[8:1],,1,,7<4[8:1],,4,,7,,2,,1-5[8:1]/4-8b[8:1],,,,A1/A4,,,,
{8}7-4[8:1]/2,8,7/2-5[8:1],1,
{16}7>2[8:1]/2,,6,4,7,,3,,
{8}4-8[8:1],3,4/2,1,8>3[8:1]/7,,8/5,6,
{16}7>2[8:1],,6,5,7,,4<7[8:1],,3v8[8:1],,4,,3,,,,
{8}7pp2[2:1],2,3,4,5-1b[8:1],,Cf,,
{8}8-6b[8:1]*-2b[8:1],,8>4b[4:1]*<4b[4:1],,8,,,,1<8-6[8:1]*-6b[8:1],,1q5[4:1]*>5[4:1],,,,,,5-8-6[8:1]*-2-4[8:1],,5,,1-5[8:1],,1>5[4:1]/8,,1/7h[4:1],,,,
{24}E6,,E5,E4,,,Cf,,,,,,
{8}8-5[8:1]*q5[8:1],,8,,8-5b[8:1]*q5b[8:1],,8,,
{16}2-6-2[4:1],,,1,2w6b[8:1],,,,,,,,4x>1[8:1]/8x,,,,7<4[8:1]/4,,,,7/8-4[8:1],,,,8w4[8:1],,,,8,,,,
{16}2h[8:1],,6,6,1h[8:1],,5,1h[8:1],,4,3,5,2b,,,,
{8}8<4[8:1]*p4[8:1],,8,,1q5[8:1]*>5[8:1],,1,,
{16}6<2[4:1],,,2,2v4[8:1],,3,,4b,,,,3-8[8:1],,,,
{8}3/4-7b[8:1],,3-8[8:1]/4,,3/4-7b[8:1],,1>8[2:1]/4,,1b/6h[4:3],,,,,,,,
{8}3pp4[4:1],,4-1-3[4:1],,7-2b[8:1],,7,,5qq5b[4:1]*pp5b[4:1],,,,,,2q6[8:1],1,
{8}2/7p3[8:1],8,2q6[8:1]/7,1,2/7p3[8:1],8,2/7,1,
{16}1h[2:1],,,7,,,6,6,5w1b[8:1],,4/6,,A5f,,,,
{8}3-8[8:1]/4,2/5,3/4,,6-1[8:1]/5,7/4,6/5,,2-5[8:1],3,2/6-1[8:1],7,4/6,3,2/8,,
{8}4-8>1[8:1]*v2[8:1],3/5,4,,4<1[8:1],3,4/2h[8:1],,
{24}3x,4x,3x,4x,3x,4x,2x,5x,2x,5x,2x,5x,1x,6x,1x,6x,1x,6x,8bx/7bx,,,,,,
{8}2pp4[8:1]/7qq5[8:1],3/6,2/7,,1>2q6-4[8:1]*<8p4-6[8:1],1,1,,
{8}3-7[8:1],7-3[8:1],3,6,5v8[8:1]*v2[8:1],5,5,,
{8}7-5[8:1],2-8[8:1],7-3[8:1],2-6[8:1],7,2,
{16}8,,4,4,
{8}8<2b[4:1],8,2,1,1w5b[8:1],,A1/B1/Cf/B5/A5,,
{8}8v6b[8:1]*v2b[8:1],,8>4b[4:1]*<4b[4:1],,8,,,,1<8-6[8:1]*-6b[8:1],,1q5[4:1]*>5[4:1],,,,,,5-8-6[8:1]*-2-4[8:1],,5,,1-5[8:1],,1>5[4:1]/8,,1/7h[8:1],,7h[8:1],,7h[8:1],,7h[8:1]/E6/B5,,
{8}8-5[8:1]*q5[8:1],,8,,8-5b[8:1]*q5b[8:1],,8,,
{16}7-3-7[4:1],,,8,7w3b[8:1],,,,,,,,5x<8[8:1]/1x,,,,2>5[8:1]/5,,,,2/1-5[8:1],,,,1w5[8:1],,,,1,,,,
{16}2h[8:1],,E1/B8,3h[8:1],,E7/B7,4,4,5w1b[8:1],,4/6,,A5f,,,,
{16}3>8[8:1]/7,,4,,3/7,,6,,2q6[8:1]/5,,1,8,2,,7,,5/7,,1/8,,3-8[8:1]/4,,1/8V25[4:1],,7-3[8:1],,,,C,,,,
{8}5xv3[8:1]*-1>2[8:1],5x,5x,,8<4[8:1],8,8/2h[8:1],,
{24}1x,2x,3x,8x,7x,6x,2x,3x,4x,7x,6x,5x,
{32}1x-5[8:1],2x,3x,4x,8x,7x,6x,5x,1x,,,,,,,,
{16}2pp4[8:1],,6pp8[8:1],,2,,6,,3x<5[8:1],,1x,1x,3x,,7x,,
{16}6-2[8:1],,1-6[8:1],,6<4[4:1],,1,,4x-8[8:1],,,,5,,6,,
{16}7v4[8:1],,6,5,7,,2,,1-5[8:1],,5-2[8:1],,1,,,,8pp3[8:3],,7,,6,,5,,4w8b[8:1],,,,Cf,,,,
{16}1bx-7b[8:1],,5,5,1-3b[8:1],,5,,1>5b[8:1]*<5b[8:1],,,,1,,,,1<8-6[8:1]*-6b[8:1],,1,,1q5[4:1]*>5[4:1],,,,1,,,,,,,,
{16}2-5[8:1],,8-5[8:1],8,2-4[8:1],,8-6[8:1],,2,,8,,1>5[4:1],,,,5-1[8:1],,6,,7,,8,,8q5[8:1]*p3[8:1],,,,8,,,,
{16}8-5[8:1],,5p8[8:1],5,8,,3,,2-6b[8:1],,1x,1x,2,,8,,
{16}7<4[8:1],,4-8[8:1],4,7,,3,,2-6b[8:1],,,,2/1,,8,,
{16}7-1[8:1],,1-5[8:1],1,7,,2,,3s7[8:1],,3,,3/5h[8:1],,,,
{8}1h[8:1],E6/D6,2h[8:1],E7/D7,3h[8:1],E8/D8,4h[8:1],E1/D1,Cf,,
