&title=Fly Me to the Star
&artist=佐藤日向/小泉萌香
&first=0
&des=luvlily
&lv_7=星
&inote_5=(124){1},
{16}7,,,,3,,4,,,,56,,,,7,,
{16},,,,1,,,,37,,,,54,,6^3[8:3],,
{16},,,,,,,,,,,,18,,
{2048}1^4[8:4],
{16}8!^5[8:4]*^5[8:4]/8$,
{2048},{1024},{512},{256},{128},{64},{32},
{16},,,,,,,,,,,,,,
{2048}3$,
{16}6/3!>6[8:4],
{2048},{1024},{512},{256},{128},{64},{32},
{16},,,,,,,,,,,,5,,,,
{16}3h[4:1],,,,8,,7h[4:1],,,,1,,,,2,,
{16}8h[4:1],,,,3,,4h[4:1],,,,6,,,,
{2048}2-7[8:4],
{16}2!pp4[8:4]*pp4[8:4],
{2048},{1024},{512},{256},{128},{64},{32},
{16},,,,,,,,,,,,,,,,
{16}3,,,,2,,2pp2[2:1],,,,8,,,,7,,
{16},,,,5,,5h[4:1]/1,,,,2h[4:1],,,,7,,
{16}8^5[32:9],,,,4,,3,,,,4!V68[16:9]*V68[16:9]/4$,,6-2[16:7],,,,
{16},,,,,,,,,,,,37,,,,
{16}1-4[8:3],,,,6,,7,,,,8h[4:1],,,,4,,
{2048}3q8[8:4],
{16}3!<8[8:4]*<8[8:4],
{2048},{1024},{512},{256},{128},{64},{32},
{16},,,,,,,,,,,,,,
{16}17,,,,2,,35,,,,7,,
{2048}6$,
{16}6!^3[8:3]/4,
{2048},{1024},{512},{256},{128},{64},{32},
{16},,
{16}2,,,,1,,1pp3[8:3],,,,,,5,,,,
{16}7,,,,17,,{2048}7!-3[8:3]*-3[8:3]/7$,
{16}1-5[8:3],
{2048},{1024},{512},{256},{128},{64},{32},
{16},,,,,,,,
{16},,,,5V74[2:1],,,,7,,,,4!V61[2:1]*V61[2:1]/4$,,
{2048}5-1[8:3],
{16},
{2048},{1024},{512},{256},{128},{64},{32},
{16},,,,,,,,,,,,,,1$b,,
{16},,,,,,,,,,,,,,,,
{16}37,,,,,,6,5,7,,,6/4h[16:3],,,5h[8:1],,
{16}2,,4,,5,,7h[8:3],,,,,,1,,,,
{16}3,,25,,,,1h[8:1],,7h[16:3],,,5,,,8/4,,
{16},,3,5-8[16:8],1!-4[16:7]*-4[16:7]/1$,,,,,,,,,,,,
{16},,,7,3h[4:1],,6,,5h[16:3],,,2h[16:3],,,4,,
{16}1h[4:1]/5,,,,7,,6h[4:1],,,,3h[4:1],,,,8,,
{16}7h[4:1],,,,1,,2h[4:1]/6,,,,6,,7,,1$/8$,,
{16},,,,,,,,,,8,,7,,3/6!pp3[8:5]*pp3[8:5]/6$,,
{16},,,,,,,,,,,,1h[4:1],,,,
{16}5,,,,6,,7!qq5[16:5]*qq5[16:5]/7$,,,,3,,,,1,,
{2048}2!>6[8:3]/2$,
{16}2!^4[16:3]*^4[16:3],
{2048},{1024},{512},{256},{128},{64},{32},
{16},,6,,7,,,,1,,8,,7h[8:5],,
{16},,6,,5,,4,,3h[16:3],,,8h[16:3],,,1,,
{16}2!^7[32:7]*^7[32:7]/2$/8,,,,6,,6h[4:1],,,,5$/5!>1[16:6]*>1[8:3],,,,6,,
{16},,,,7,,7h[4:1],,,,2h[4:1],,,,1,,
{2048}1!<3[8:4]*<3[8:4]/1$,
{16}1!^6[8:2],
{2048},{1024},{512},{256},{128},{64},{32},
{16},,3,,2,,,,8,,1,,2h[8:4],,
{16},,1,,8,,7,,6h[4:1],,8,,1,,,,
{16}3/6$/6!pp8[4:1]*pp8[4:1],,,,2,,2$/2!^5[32:7]*^5[32:7],,,,7,,8,,
{2048}1!p4[8:3]/1$,
{16}1!<4[8:3]*<4[8:3],
{2048},{1024},{512},{256},{128},{64},{32},
{16},,,,,,,,,,,,46,,,,
{16}3/7!^4[32:7]*^4[32:7]/7$,,,,1,,2!pp1[32:14]*pp1[32:14]/2$,,,,6,,7,,8,,
{16},,8,,
{2048}2q6[32:9],
{16}7!p3[32:9]*p3[32:9]/7$,
{2048},{1024},{512},{256},{128},{64},{32},
{16},,,,,,,,,,
{16}45,,,,27,,
{2048}1!<5[8:3]*<5[8:3]/1$,
{16}8>4[8:3],
{2048},{1024},{512},{256},{128},{64},{32},
{16},,,,,,,,
{16},,,,4!V25[2:1]*V25[2:1]/4$,,,,2,,,,5V38[2:1],,
{2048}4$/4!-8[8:3]*-8[8:3],
{16},
{2048},{1024},{512},{256},{128},{64},{32},
{16},,,,,,,,,,,,,,8$b,,
{16},,,,,,,,,,,,,,,,
{9999}7!V51[2:3]*V51[2:3]/7$,2V48[2:3],4!-8[36#108:28]*-8[36#108:28],5!-1[36#108:28],
{24},,,,,,,,,,,,,,
{16},,,,,,,,,,,,,,,,
{16},,,,,,,,,,,,,,,,
&inote_7=(124){1},
{16}7,,,,3,,4,,,,56,,,,7,,
{16},,,,1,,,,37,,,,54,,6^3[8:3],,
{16},,,,,,,,,,,,18,,
{2048}1^4[8:4],
{16}8!^5[8:4]*^5[8:4]/8$,
{2048},{1024},{512},{256},{128},{64},{32},
{16},,,,,,,,,,,,,,
{2048}3$,
{16}6/3!>6[8:4],
{2048},{1024},{512},{256},{128},{64},{32},
{16},,,,,,,,,,,,5,,,,
{16}3h[4:1],,,,8,,7h[4:1],,,,1,,,,2,,
{16}8h[4:1],,,,3,,4h[4:1],,,,6,,,,
{2048}2-7[8:4],
{16}2!pp4[8:4]*pp4[8:4],
{2048},{1024},{512},{256},{128},{64},{32},
{16},,,,,,,,,,,,,,,,
{16}3,,,,2,,2pp2[2:1],,,,8,,,,7,,
{16},,,,5,,5h[4:1]/1,,,,2h[4:1],,,,7,,
{16}8^5[32:9],,,,4,,3,,,,4!V68[16:9]*V68[16:9]/4$,,6-2[16:7],,,,
{16},,,,,,,,,,,,37,,,,
{16}1-4[8:3],,,,6,,7,,,,8h[4:1],,,,4,,
{2048}3q8[8:4],
{16}3!<8[8:4]*<8[8:4],
{2048},{1024},{512},{256},{128},{64},{32},
{16},,,,,,,,,,,,,,
{16}17,,,,2,,35,,,,7,,
{2048}6$,
{16}6!^3[8:3]/4,
{2048},{1024},{512},{256},{128},{64},{32},
{16},,
{16}2,,,,1,,1pp3[8:3],,,,,,5,,,,
{16}7,,,,17,,{2048}7!-3[8:3]*-3[8:3]/7$,
{16}1-5[8:3],
{2048},{1024},{512},{256},{128},{64},{32},
{16},,,,,,,,
{16},,,,5V74[2:1],,,,7,,,,4!V61[2:1]*V61[2:1]/4$,,
{2048}5-1[8:3],
{16},
{2048},{1024},{512},{256},{128},{64},{32},
{16},,,,,,,,,,,,,,1$b,,
{16},,,,,,,,,,,,,,,,
{16}37,,,,,,6,5,7,,,6/4h[16:3],,,5h[8:1],,
{16}2,,4,,5,,7h[8:3],,,,,,1,,,,
{16}3,,25,,,,1h[8:1],,7h[16:3],,,5,,,8/4,,
{16},,3,5-8[16:8],1!-4[16:7]*-4[16:7]/1$,,,,,,,,,,,,
{16},,,7,3h[4:1],,6,,5h[16:3],,,2h[16:3],,,4,,
{16}1h[4:1]/5,,,,7,,6h[4:1],,,,3h[4:1],,,,8,,
{16}7h[4:1],,,,1,,2h[4:1]/6,,,,6,,7,,1$/8$,,
{16},,,,,,,,,,8,,7,,3/6!pp3[8:5]*pp3[8:5]/6$,,
{16},,,,,,,,,,,,1h[4:1],,,,
{16}5,,,,6,,7!qq5[16:5]*qq5[16:5]/7$,,,,3,,,,1,,
{2048}2!>6[8:3]/2$,
{16}2!^4[16:3]*^4[16:3],
{2048},{1024},{512},{256},{128},{64},{32},
{16},,6,,7,,,,1,,8,,7h[8:5],,
{16},,6,,5,,4,,3h[16:3],,,8h[16:3],,,1,,
{16}2!^7[32:7]*^7[32:7]/2$/8,,,,6,,6h[4:1],,,,5$/5!>1[16:6]*>1[8:3],,,,6,,
{16},,,,7,,7h[4:1],,,,2h[4:1],,,,1,,
{2048}1!<3[8:4]*<3[8:4]/1$,
{16}1!^6[8:2],
{2048},{1024},{512},{256},{128},{64},{32},
{16},,3,,2,,,,8,,1,,2h[8:4],,
{16},,1,,8,,7,,6h[4:1],,8,,1,,,,
{16}3/6$/6!pp8[4:1]*pp8[4:1],,,,2,,2$/2!^5[32:7]*^5[32:7],,,,7,,8,,
{2048}1!p4[8:3]/1$,
{16}1!<4[8:3]*<4[8:3],
{2048},{1024},{512},{256},{128},{64},{32},
{16},,,,,,,,,,,,46,,,,
{16}3/7!^4[32:7]*^4[32:7]/7$,,,,1,,2!pp1[32:14]*pp1[32:14]/2$,,,,6,,7,,8,,
{16},,8,,
{2048}2q6[32:9],
{16}7!p3[32:9]*p3[32:9]/7$,
{2048},{1024},{512},{256},{128},{64},{32},
{16},,,,,,,,,,
{16}45,,,,27,,
{2048}1!<5[8:3]*<5[8:3]/1$,
{16}8>4[8:3],
{2048},{1024},{512},{256},{128},{64},{32},
{16},,,,,,,,
{16},,,,4!V25[2:1]*V25[2:1]/4$,,,,2,,,,5V38[2:1],,
{2048}4$/4!-8[8:3]*-8[8:3],
{16},
{2048},{1024},{512},{256},{128},{64},{32},
{16},,,,,,,,,,,,,,8$b,,
{16},,,,,,,,,,,,,,,,
{9999}7!V51[2:3]*V51[2:3]/7$,2V48[2:3],4!-8[36#108:28]*-8[36#108:28],5!-1[36#108:28],
{24},,,,,,,,,,,,,,
{16},,,,,,,,,,,,,,,,
{16},,,,,,,,,,,,,,,,
