&title=鬼哭慟哭地獄楽
&artist=Halozy
&first=0.083
&des=Shizu
&lv_5=14
&des_5=Shizu
&inote_5=
(155){4},,,,{64}4x/5x,
6x/3x,,7bxh[64:429]/2bxh[64:509],{1},,,,,,{4},,,{16},,,{4}E8/B7/E7/D7/D8,
A5/B5/E5/B4/A4/D5,{2}D2/E2/B2/E3/D3,
{1}1h[1:1],
8h[1:1],
7h[1:1],
6h[1:1],
{4}5h[1:1],E4,E3,E2,
3h[1:1],E8,E7,E6,
1h[1:1],E5,C,E1,
{1}Ch[4:3],
{16}7bx/1bx,,,5,{8}5,{16}3,3,,2,,8,{8}8,7,
{16}6/2,,,3,{8}3,{16}5,5,,6,,8,{8}8,1,
{16}2/5,,,3,{8}3,{16}4,4,,6,,7,{8}7,8,
{4}1/3,{16}5x,6x,7x,8x/1,,5/3,,6,{8}6,1,
{4}8/7h[8:1],{8}3,{16}6,6,,4,,7,{8}7/1,2,
{4}5/3h[8:1],{8}2/7,{16}8,8,,3,,6,{8}5/6,7,
{4}2/8h[8:1],{8}3/5,{16}6,6,,2,,7,{8}7/1,3/5,
{4}B7/E7/B6/E3/B2/B3/C,{16}5x/4x,3x/6x,2x/7x,1x/8x,,C,,4/5,3x,6x,2x,7x,
{4}8bx/1bx,{8}6,5,4,3,7,7,
2,2<7>2[2:1],,,,,,,{4}5,
{8}7,6,4,3,1-7[4:1],1,
{4}7<5[4:1],5-3[4:1],3>1[4:1],1<7[4:1],
7-5[4:1],{8}5-3[4:1],5h[8:3],,,,,{4}8-6[8:1],
8,{8}2-6[8:1],1,{4}2,
5/4>1[4:1],{8}1V35[2:1],8h[8:3],,,,,7b,
,,,,4h[16:1],4h[16:1],4h[16:1],
4b/5bh[8:1],3,7/8,{16}2,2/1,,8,,4,{8}4/5,6,
1/7h[8:1],2,6/3,{16}5,5/4,,7,,2,{8}1/2,3,
5/4h[8:1],6,7/1,{16}2,2/8,,6,,3,{8}3/5,7/1,
6/2,3,{16}5,6,7,8/1,,4,,3,{8}3/6,2,
1/8h[8:1],3,5/7,{16}4,4/6,,3,,8,{8}8/2,7,
6/4h[8:1],5,3/7,{16}8,1/8,,6,,3,{8}4/3,2,
8/1h[8:1],7,6/4,{16}5,5/3,,2,,6,{8}6/4,5/7,
{4}C/B1/B8/B7/B6/B5/B4/B3/B2,{16}1,2,3,4/5,,8,,1,{4}2bh[4:1]/7bh[4:1],
{8},,3,5,4,6,2,2,
7,7p2q7[2:1],,,,,,,{4}1,
{8}2,3,5,6,8,8,
{4}1>5V31[2:1],1,7,{8}5,4,
{4}2-4[4:1],{8}4-6[4:1],4h[8:3],,,,,{4}1-3[8:1],
1,{8}7-3[8:1],8,{4}7,
4/5<7[4:1],{8}7-1-3[2:1],7,,,{4}5,
{16}4bx,4x,,5x,{8}5x,7,1h[8:1],3h[8:1],5h[8:1],7h[8:1],
{4}8b<6[8:1],8,{8}4-8[8:1],5-1[8:1],4,5,
{4}3<6[8:1],{8}3,8V24[4:1],,7h[4:1],,,{4}5/6,
{8}1-3[8:1],1-7[8:1],1-5[8:1],1,1,7x,
{4}7x<3V57[2:1],7,1,{8}3,2,
{4}1/5h[8:1],{8}4-2[8:1],5-7[8:1],4-8[8:1],5-1[8:1],,,{4}2>5[8:1],
{8}2,6<1[8:1],,6,{4}2p3q2b[2:1],
2,6,7,{8}7q6p7b[2:1],6,
{4}7,4,1,5/4,
2b/7b,{8}6V82[8:3],5,6,,,3-5[8:1],
{4}3,{8}6v4[8:1],6,,3,{4}2<7[4:1],
7<4[4:1],4>1[4:1],1<6[4:1],6>6V82b[4:3],
,,,,3b-7[8:1],
3/1-3[8:1],1/5-7[8:1],5,
{2}8b-2[8:1]/4b-6[8:1],6b-3[8:1]/2b-7[8:1],
{1}3bqq4b[2:1]/6bpp5b[2:1],
{8}A5/A4,E5,{16}B8,B1,,E7,,B3,{8}B2,E6,E8,
{4}6b/3bv8>2[8:5],3,{16}5,5,{8}6xh[4:1],,,{4}3/7v5>3[8:5],
7,{16}2,2,{8}1xh[4:1],,,{4}5/8pp8[8:5],
8,{16}4,4,{8}5xh[4:1],,,{4}7/6q4<5[8:5],
6,{16}1,1,{8}2xh[4:1],{16},,,,7,
2,7,2,7,2,7,2,7,2,7,2,7,2,7,2,
8,1,8,1,8,1,8,1,8,1,8,1,8,1,8,1,
{32}8x,7x,6x,5x,{16}1,8,{32}1x,2x,3x,4x,{16}8,1,{32}8x,7x,6x,5x,4x,3x,2x,1x,8x,7x,6x,5x,4x,3x,2x,1x,
{8}8x/E8/B7/E1/A7/B1/D8/D1/B8f,,,4,3/5,4,6/2<8-4>3<4-8>2b[1:1],4,
{1}2b/7h[4:5]/D2f,
{8},,,6,5/4,3,2/8-6p7q6-8b[1:1],7,
{1}8b/1h[4:5]/D8f,
{8},,,8,7/1,2,8/3>2v5v2>3b[2:1],4,
{4}3b/1h[8:5]/D3f,{8},,,,8<6[8:1],1,
{4}8,{8}4-8[8:1],5,{4}4/6-2[8:1],6/8>7<8b[1:1],
{1}8b/5h[4:5]/D1f,
{8},,,4,6/3,7,1/8-2p4q2-8b[1:1],2,
{1}8b/3h[4:5]/D1f,
{8},,,8,7/4,6,5/3<4v5<6>5v4>3b[1:1],2,
{1}3b/4h[4:5]/D4f,
{8},,,2,5/1,6,7/8-4-8b[2:1],1,
{4}8b/2h[8:5]/B8f,{8},,,,6-4[8:1],1,
{4}6,{8}8-4[8:1],7,{4}8/6-2[8:1],6/1pp4qq1b[1:1],
{1}1b/8h[4:3]/B1f,
{8}8,7,{16}2,2,,3,,6,{8}6,{16}4>1>4b[2:1],5,4,5,
{4}4bx/5xh[2:1]/D4f,{8},,,,7-5[8:1],8,
{4}7/1q5[8:1],1<5[4:1],{8}5/1,3,{4}1>3[4:1],
3b<5[4:1],5<7[4:1],7>1[4:1],1V35[2:1]*>5[2:1],
7h[2:1],{8},,,,6v3[4:1],2,
{4}6b,1<6[8:1],1/3>1[8:1],3/5-3[8:1],
1b/5-7[8:1],5/1>3[8:1],1/7>1[8:1],7/4<7qq3b[4:3],
4b/1h[2:1]/D5f,,,8pp5<7b[4:3],
8b/3h[2:1]/B8f,,,1q1-3-5-7>8-2-4-6b[1:2],
{1}1b/5h[1:2]/B1f,
{4},,,,,,,,,,,,4h[1:1],
E6,E7,E8,
6h[1:1],E2,E3,E4,
8h[1:1],E5,C,E1,
{1}Ch[4:3],
{8}2bx/8bxh[8:1],1,2/6,{16}7,7/4,,3,,8,{8}8/1,2,
6/5h[8:1],7,8/3,{16}6,6/4,,7,,3,{8}3/5,2,
8/1h[8:1],7,6/2,{16}3,3/4,,5,,7,{8}7/6,7/5,
4/8h[8:1],3,{16}6,1,7,2h[8:1],,8h[8:1],,6,{8}6/7,5,
4/8h[8:1],3,7/2,{16}6,6/1,,2,,5,{8}5/3,4,
2/6h[8:1],5,7/3,{16}8,8/1,,4,,7,{8}2/7,3,
5/4h[8:1],6,7/3,{16}2,2/1,,8,,6,{8}6/4,6/2,
{4}6b/8bh[4:1],{16}6,1,6,3h[8:1],,7h[8:1],,2,{4}6b-4[8:1]/1b-5[8:1],
{8},,7,7,2,2,8,1,
6,6<1<6[2:1],,,,,,,{4}4/5,
{8}4,4,3,2,1,8,
{4}7-5[4:1],5-3[4:1],3-1[4:1],1<7[4:1],
7v5[4:1],{8}5>1[2:1]*p1[2:1],5,,,,,,,{4}7,
{8},1,2,3,
{4}4<6[4:1],{8}6<2[2:1]*q2[2:1],6,{16},,,,,,,,A2,
A3,,A6,{8}A7,C,6h[8:1],8h[8:1],2h[8:1],4,
{4}5b-7[8:1],5,{8}1-5[8:1],7-3[8:1],1,7,
{4}8>3[8:1],{8}8,4<7[8:1],,4/8,2,4,
{4}8h[8:1],{8}1-3[8:1],1-7[8:1],1-4[8:1],1-6[8:1],1,1,
{4}5x<8[4:1],8x>3[4:1],{2}3q3[4:1],
6<8[8:1],{8}2-5[8:1],1-6[8:1],,,{4}2>5[8:1],
{8}2,7>2[8:1],,7,{4}5q4p5b[2:1],
5b,{8},,,,1q8p1>5b[4:3],8,
{4}1b,{8},,,,8,7,
{4}6h[4:1],{8}1>4[8:3],2,1,,,8,
{4}7<5[8:1],{8}7,3>1[8:1],,3,{4}7-5[4:1],
5-3[4:1],3-1[4:1],1-7[4:1],7<8>7b[1:1],
,,,,2bx-6[8:1],
2/8-2[8:1],8/5<7[8:1],5,
{2}8bv5[8:1]/2bv5[8:1],7bv4[8:1]/1bv4[8:1],
{1}1bpp4b[2:1]/5bpp8b[2:1],
{8}8/4,3,{16}2,2,,7,,6,{8}6,5/1,8/4,
{4}7/2bv4>1[8:5],2,{16}7,7,{8}6xh[4:1],,,{4}8/5v8<6[8:5],
5,{16}2,2,{8}3xh[4:1],,,{4}5/4v5V31[8:5],
4,{16}7,7,{8}8xh[4:1],,,{4}6pp5[8:5],
6,{16}3,3,{8}4xh[4:1],{16},,,,3,
8,3,8,3,8,3,8,3,8,3,8,3,8,3,8,
2,1,2,1,2,1,2,1,2,1,2,1,2,1,2,1,
{32}2x,3x,4x,5x,{16}1,2,{32}1x,8x,7x,6x,{16}2,1,{32}2x,3x,4x,5x,6x,7x,8x,1x,2x,3x,4x,5x,6x,7x,8x,1x,
{8}2x/E3/B3/E2/A3/B1/D3/D2/B2f,,,7,8/6,1,2/7>8q1>2<1p8<7b[1:1],3,
{1}7b/4h[4:5]/D8f,
{8},,,5,6/3,2,8/1pp4qq1b[1:1],7,
{1}1b/6h[4:5]/B1f,
{8},,,7,8/5,1,2/6<8>1q7b[2:1],3,
6b/4h[2:1]/D7f,,,,,3,8/2>5[8:1],7,
{4}2/6,{8}8/1-5[8:1],2,1/8-4[8:1],7,{4}8/1>3p6<8<6q3>1b[1:1],
{1}1b/5h[4:5]/D2f,
{8},,,6,7/2,8,4/1<7v5>3<5v7>1b[1:1],3,
{1}1b/2h[4:5]/D1f,
{8},,,3,4/2,5,6/1>3q5<7<5p3>1b[1:1],8,
{1}1b/7h[4:5]/D2f,
{8},,,1,2/6,5,2/6<8>1V35b[8:5],3,
{4}6b/4h[8:5]/D7f,{8},,,,6/3-5<7[4:1],2,
{4}3,{8}8-4[8:1],1,{4}8/2V46[8:1],2/7>1>4-6-4>7b[1:1],
{1}7b/3h[4:3]/D8f,
{8}3,2,{16}1,1,,7,,6,{8}6,{16}5/1<7p6>4b[4:3],4,3,2,
{4}1b/3h[2:1]/D1f,{8},,,,3-5[8:1],2,
{4}3/7-3[8:1],7/1V35[4:1],{8}5/1,7,{4}1qq1[2:1],
,1pp1[2:1],,1<2[2:1],
{8},,,,,,8qq5b[8:3],1,
{2}8b,{4}5/1>2-4[8:1],5/1V73[8:1],
1/2-6[8:1],2/8-4[8:1],8/1-5[8:1],1/7qq8>4b[8:7],
7b/3h[2:1]/B7f,,,1-3v8>2-5<7b[8:7],
1b/5h[2:1]/D2f,,,8q1-3-5-7>7b[1:2],
{1}8b/2h[1:2]/E1f,
,,{4},,,{8},{16}1,
1,
{4}8h[8:1],8h[8:1],2h[8:1],4h[8:1],
{12}1x,2x,3x,4x/5h[8:1],,,{4}7h[8:1],{8}3h[8:1],5,
{4}5h[8:1]/4h[8:1],7h[8:1]/4h[8:1],5h[8:1]/4h[8:1],5h[8:1]/2h[8:1],
{16}8/2x,7,6,5,{8}4,{16}4/6x,3,2,1,{8}8,{16}6,8,7,1,
{8}8bh[16:3],{16}3,3h[16:3],,5,{8}5h[8:1],1h[16:3],{16}4,4h[16:3],,6,{8}6h[8:1],
7b,{16}2,2/1,,4,{8}4/5,3/6,{16}5,2/5,,4,{8}4/7,
8b/1b-5[0.2903##0.1452],{16}1x,7-3[0.2903##0.1451],,7x,{8}2,6<1[0.2903##0.1452],{16}6x,2>5[0.2903##0.1451],,2x,{8}6,
{16}7bx,1x,7,2x,7,3x,7,4x,7h[16:3],,,4h[16:3],,,{8}1h[8:1],
3bh[8:1],{16}4,3,5,3,6,3,{8}7bh[8:1],{16}8,7,1,7,2,7,
{8}3bh[8:1],{16}1,3,8,2,7,1,{8}6bh[8:1],{16}1,2,{8}3/6,8/1,
{16}3b,5,4,5,3b,5,4,5,2b,6,5,6,1b,6,5,6,
{8}8,1,{16}2,2,,5,,6,{8}6,7,3,
{4}4/5b<8v5[8:5],5,{16}3,3,{8}2xh[4:1],,,{4}4/1qq2[8:5],
1,{16}5,5,{8}6xh[4:1],,,{4}3/7V53-6[8:5],
7,{16}2,2,{8}1xh[4:1],,,{4}5/8-4>3-1[8:5],
8,{16}7,7,{8}6xh[4:1],{16},,,,5,
4,5,4,5,4,5,4,5,4,5,4,5,4,5,4,
6,3,6,3,6,3,6,3,7,2,7,2,7,2,7,2,
{32}8,7,6,5,4,3,2,1,8/4,5,6,7,8,1,2,3,8/4,7,6,5,8,1,2,3,8<5pp4[4:1],7,6,5,8,1,2,3,
{8}4bx/8b,,,3,4/2,5,6/8q7-2-4-6<1-3-5b[4:5],7,
{1}8b/2h[4:5]/E1f,
{8},,,6,1/7,8,2/1-7-3-8-4-2-6>5b[4:5],3,
{1}1b/4h[4:5]/E1f,
{8},,,3,2/6,7,8/1v7>4-6b[8:5],2,
{4}1b/6h[8:5]/B1f,{8},,,,7/8qq5[8:3],1,
{4}8/2,{8}3>1[8:1],4,{4}3/7-3[8:1],7/1q7q5-8-3-6-2-4b[4:5],
{1}1b/5h[4:5]/E2f,
{8},,,5,5/3,6,1/7-4-1-6-3-8-5-2b[4:5],8,
{1}7b/4h[4:5]/E7f,
{8},,,1,8/3,7,6/2v8>3-5-7q4-6b[4:5],5,
{1}2b/4h[4:5]/B2f,
{8},,,7,8/5,1,2/7p8<5b[8:5],3,
{4}7b/4h[8:5]/E8f,{8},,,,5/3pp5>4v7[8:3],2,
{4}1/3,1>5[4:1],1/5<8[4:1],8-2-7-3-6-4b[1:1],
{1}E1f,
{16}A4f,,,,,,,5/4,,3,{8}3,7/2-6<8-4b[8:5],{16}8,1,
{4}2b/7h[8:5]/B2f,{8},,,,3/6>3[8:1],2,
{4}6/1<6[8:1],1/2,{8}5/3,2,{4}7/8-4[4:1],
4b<7[4:1],7>3[4:1],3<1[4:1],1s5[2:1],
{8},,,,,,4/6>4v7[4:1],3,
{4}2b/6b,1-5[8:1],1/7-1[8:1],7/3-7[8:1],
3/2-6[8:1],2/1-5[8:1],1/8-4[8:1],8/6<8q4<5q1>3b[8:7],
6b/3h[2:1]/E7f,,,5>7q6b[8:7],
5b/8h[2:1]/E5f,,,7xq6-8>5-1-3q2-4-6b[1:2],
{1}7b/2h[1:2]/E8f,
{4},,,,,,,,,,,,8h[8:1],
1h[8:1],7h[8:1],5h[8:1],
{12}8x,7x,6x,5x/4h[8:1],,,{4}2h[8:1],6h[8:1],
5h[8:1],2h[8:1],5h[8:1],8h[8:1],
2h[4:1]/A7/A6/B7/B6/E7f,{16}6x-4[8:1],7x,{8}8x,{2}6-2[8:1],
{1}E3/B3/E4/D4/D3/A3f/Ch[1:3],
,,,
E
