&title=黒蝶のワルツ
&artist=ぺのれり
&first=0.025
&des=直接开吃
&des_5=直接开吃
&lv_5=14+
&inote_5=(108){4},,,5/4qq5[2:1],
{8},,,,E1,B8,B7,B6,
,,{4}4/5pp4[2:1],{8},,,,E1,
B1,B2,B3/Ch[8:3],,,{4}1>3-6>4-1b[1:1],
8,7,{8}8,7,{4}6h[8:1],
{8}6,6,{4}6h[8:1]/3qq6[8:3],7h[8:1],{8}8,8,
7/5,6/4,(216)3/5-8[0.2778##0.1389],,2b,,{12}1,{24}1,,{12}1,
1,{24}1,,{12}1,2x/8x,{24},,8/2-5b[0.2778##0.1852],,{8},6bh[#1.805561],,,
,,,,,,8V25[0.2778##0.5556],,
,,,,7bxh[#0.2777786],,,8bxh[#0.2777786]/1bxh[#0.2777786],
,,2/7,{24},2/7-3b[0.2778##0.1852],,{8},8b>6[0.2778##0.9722],,,
,,,,,,7bh[#0.2777786],,
1,{24},1,,{12}6,{24}5,,{12}6,3,{24}5,,{12}4,6,{24}5,,{12}7,
4,{24}5,,{12}3,6h[#0.2777786],{24},{8},{12}2,{24}3,,{12}4,1,{24}8,,{12}7,
{8}2qq5[0.2778##0.5556],,B8f,,,,6h[#0.2777786],,
{12}4,{24}3,,{12}2,6,{24}7,,{12}8,{8}4>5[0.2778##0.4167],,B8f,,
,,7xh[#0.4166679],{16},B5,{8},2xh[#0.4166679],{16},B4,{8},
8xh[#0.4166679],{16},B6/E6,{8},1xh[#0.4166679],{16},B3/E4,{8},7xh[#0.208334],{16},5,
{8},8/2xh[#0.208334],{16},4,{8},1b/7xh[#0.208334],{16},5,{8},8b/2xh[#0.208334],
{16},4,,,(160){8}8b/7bh[8:1],{24}2,3,4,5,6,7,8,1,2,{16}3/5V38[4:1],,,6,
,,{8}7h[4:1],,1,{4}1/7,{16}6/4V61[4:1],,,3,
,,{8}2h[4:1],,8,{16}8/2,7,6,5,4/2h[8:1],,,5/7h[8:1],
,,{8}1h[8:1]/8h[8:1],{24},,{12}2,5,4,8,6,7,1,5,
3,8bx-4b[12:1],,{4}2xh[4:1],{16}5,6,7,8,1h[8:1]/4h[8:1],,,2h[8:1]/7h[8:1],
,,{8}5h[4:1]/8V25[4:1],,,{4}6h[8:1],{16}7h[8:1]/4h[8:1],,,2h[8:1]/5h[8:1],
,,{8}1/8,{16}8/1-5[8:1],,,6,1^4[8:1],,,6,1,,,7h[8:1],
,1x,,,2x,3,4,5/8x,7,6,5/1x,2,3,4/8xh[16:3],{32},,,,1bx-5[0.375##0.1389],
2x,3x,4x,1bx,8x,7x,6x,(216){8}1bx<6b[0.2778##0.2778],,{12}4,{24}3,,{12}2,1-3-6-4-1[0.2778##0.6944],{24},{8},
7x-4b[0.2778##0.2778],,A7f,,,,5/8bx>3b[0.2778##0.2083],,
{12}5,{24}6,,{12}7,8-6-3-5-8[0.2778##0.6944],{24},{8},2x-5b[0.2778##0.2778],,A2f,,
,,4/7h[#0.2777786],,6h[#0.2777786],,5h[#0.2777786],,
4h[#0.2777786],,3h[#0.2777786],,2h[#0.2777786],,5b,5,
5,5/3b,3,3,3/7b,7,7,7/4b,
4,4,{16}8b/4,7,6,5,4,3,2,1,8,7,6,5,
{12}4b,{24}4b,,{12}4b,4b,{24}4b,,{12}4b,4b,{24}4b,,{12}4b,4-1[0.2778##0.1389],{24},{8},
5/4>7q3[0.2778##0.5556],,4/6,,{12}7,{24}6,,{12}5,4<7[0.2778##0.2778],{24},{8},
3,,2pp5[0.2778##0.5556],,8,8,,1,
1p8<5[0.2778##0.6944],,4,,3,,2>5[0.2778##0.2778],,
{12}6,{24}7,,{12}8,1,{24},,1,,{8}7,{24},7,,{8}5,{24},5,,{8}3<6p1[0.2778##0.5556],
{24},3,,{8}6,,7,{24},7h[#0.2777786],,{8},{24},2,,{12}2,
{24}3,,{12}4,6,{24}7,,{12}8,3,{24}2,,{12}1,4/8-2[0.2778##0.1389],{24},{8},
7/8-6[0.2778##0.1389],,1/8-3[0.2778##0.1389],,7/8-5[0.2778##0.1389],,1/8-4[0.2778##0.1389],,
7/8,,8,,2pp2[0.2778##0.4167]/6pp6[0.2778##0.4167],,2/6,,
,,1h[#0.1388893]/5h[#0.1388893],,3/7,,{12}4/8,{24}3,,{12}2,
1/8q4[0.2778##0.1389],{24}7,,{12}6,5/8,{24},{8},{12}5,{24}6,,{12}7,8/5q1[0.2778##0.1389],{24}4,,{12}3,
{8}2/5,,2b-5b[0.2778##0.1389],{16},7,{8},8b-4b[0.2778##0.1389],{16},2,{8},
{12}1,{24}2,,{12}3,4/8,{24}7,,{12}6,5/1,{24}2,,{12}3,4/5-8[0.2778##0.1389],{24},{8},
4/5<2p6[0.2778##0.5556],,5/3,,{12}2,{24}3,,{12}4,5>2[0.2778##0.2778],{24},{8},
6,,7qq4[0.2778##0.5555],,1,1,,8,
8q1>4[0.2778##0.6944],,5,,6,,7<4[0.2778##0.2778],,
{12}3,{24}2,,{12}1,8-3[0.2778##0.1389],{24},,8,,{8}4-7[0.2778##0.1389],{24},4,,{8}2-5[0.2778##0.1389],{24},2,,{8}6-1[0.2778##0.1389],
{24},6,,{8}4b<7b[0.2778##0.1389],,3,2b>5b[0.2778##0.1389],,8,
8bh[#0.277771],,{16}5,4,3,2,1/8,7,6,5,{8}4/3,,
{12}2,{24}4,,{12}3,5,{24}4,,{12}6,{16}3b,4,5,6,7/5x-8b[0.2778##0.1389],8,1,2,
{8}3bx,,4xh[#0.277771],,{12}7,{24}5,,{12}6,4,{24}5,,{12}3,
{16}6b,5,4,3,2/4x-1b[0.2778##0.1389],1,8,7,{8}6bx,,{24}2x,3x,4x,5xh[#0.1388855],,,{12}6,
{24}4,,{12}4,6,{24}3,,{12}3,6,{24}2,,{12}2,6,{24}1,,{12}1,
6,{24}8,,{12}8,{48}6,,,5,,,{16}4,3,6,5,4,3,6,5,4,3,
{8}8w4[0.2778##0.1389],,D8/E8/E1/D1/A8,,,{24},,,(160){8}2b/6b,{16},1,
{8}7,{32}8,7/1,6qq3[0.375##1.0312]/2qq7[0.375##1.0312],5/3,{8}4,,,,,,
,,{16}1,5/1,,3/7,,6,{8}7/5,{24}4/8bx,7x,6x,5xh[#0.1875],{48},{16}3,
{8}3h[#0.1875],{24}7bx,6x,5x,{16}4xh[#0.1875],2,{8}2h[#0.1875],{24}6bx,5x,4x,3xh[#0.1875],{48},{16}1,{8}1h[#0.1875],{24}5bx,4x,3x,
{16}2xh[#0.1875],8,{8}8h[#0.1875],{24}3bx,4,5,6,7,8,1/3bx,4,5,6,7,8,{8}1/4,{16},6,
{8}7/5-8[0.375##0.1875],2b,,3,{24}5x,4x,5x,4x,5x,4x,6x,3x,6x,3x,6x,3x,
7x,2x,7x,2x,7x,2x,{8}8xh[#0.28125],{16}1,1,,1/2,{24}1x/2x-6[0.375##0.1875],3/8,4/7,{8}5/6,2b/7bz3[0.375##0.2812],
,2,1bs5[0.375##0.2812],,{16}6,7,{8}8b<5[0.375##0.1875]*>3[0.375##0.1875],,8bw4[0.375##0.1875],
,8b>6[0.375##0.375],,,,,{16}7,7,5,5,
8,8,,1/3,,7/5,,3/4,,5,5,3,3,1,1,3,
,4/6,,2/8,,1/7,2/6,3/5,{8}4bx,,{16}2,2,4,4,
1,1,,8/6,,2/4,,6/5,,4,4,{48}6x,,5x,,6x,,{16}5x,{8}4x/7bxh[#0.28125],
{16},2b,5,3,7b,4,6,1b,5,3,{8}8b,{16}4/8,3/7,2/6,5/1-5[0.375##0.1875],
{8},{16},8bx,{8},{16}4/8,3v6b[0.375##0.1875]/7-2b[0.375##0.1875],2/6,1/5,,3bx/7bx,{8},{16}5/1,4/8-4[0.375##0.1875],
3/7,2/6,,8bx,,5,6,7,1/8,2,3,4,(216){4}5/7bx,
{6}8,{12}8,2,2,2,4,4,4,5,5,5,
7,7,7,{48}1,,,2,,,{16}3,4,5/1,6,7,8,1/5,2,3,4,
{4}1-6>3V57[1:1]/5-2<7V13b[1:1],1b/5b/Cf,{1},{32}B2,
B1,B8,B7,B6,B5,B4,B3,E3,E2,E1,E8,E7,E6,E5,E4,
E3/D3,E2/D2,E1/D1,E8/D8,E7/D7,E6/D6,E5/D5,E4/D4,{4}Cf,,,,,,,,,,,,1>3-6>4-1[2:5],
,,B7/E8,
,,E7/B6,
,,{2}5x-8b[2:1],
{4},3h[4:5],E1,E8,
E7,E6,E5,4<1[4:3],
E3,E2,,2,
3,4/5h[2:1],{2}A7/A8/E8/B8/B7,
{4}5/4h[2:1],A1/A2/E2/B1/B2,{24},,,,,,1/7bh[16:3],2,3,4,5,6,
,,,8/2bh[16:3],7,6,5,4,{6}3,{24}1b/8b,2/7,3/6,4/5,,,{12}1x/8x,1x/8x,1x/8x,
1x/8x,2/7,3/6,5/4b-1b[8:1],,,{4}5/4>7q3b[2:1],4/6,
{12}7,6,5,4<7b[4:1],,,{4}3,2pp5b[2:1],
{8}8,8,,1,{4}1p8<5b[8:5],4,
3,2>5b[4:1],{12}6,7,8,1-6[8:1],,1,
{6}5-2[8:1],{12}5,7-4[8:1],,7,{6}3-8[8:1],{12}3,5b>2b[8:1],{24},,,,{8}6,
7b<4b[8:1],,1,{4}1bh[4:1],{16}4,5,6,7,
8/1,2,3,4,{4}6/5-2[8:1],{12}7-4[8:1],7,7,8-3[8:1],8,8,
6-1[12:1],6,6,4,4,4,{4}3/6,{8}2/7,8/1-3<4[8:1],
{24},,,8b/A1f,7b,6b,{4}5b,{8}3/6,1/8-6>5[8:1],{24},,,1b/A8f,2b,3b,
{4}4b,{32}2b/C,3,4,5,6,7,8,1,2,3,4,5,6,7,8,1,2,3,4,5,6,7,8,1,
{4}2,4bxh[6:1]/7bxh[6:1],{16}2bxh[6:1]/5bxh[6:1],,,,(160){4}Cf/A7/A8/E8/B7/B8/A1/A2/E2/B1/B2/E6/E4,
{16},,,,3/5V38[4:1],,,6,,,{8}7h[4:1],,1,
{4}1/7,{16}6/4V61[4:1],,,3,,,{8}2h[4:1],,8,
{16}8/2,7,6,5,4/2h[8:1],,,5/7h[8:1],,,{8}1h[8:1]/8h[8:1],{24},,{12}2,5,
4,8,6,7,1,5,B3/B4/B2/E3/E4/E5/D4/E2/D3,8b-5b[12:1],{24},,{8}8bx,{24}3,2,1,
8,7,6,5,4,3,{16}7b/2bv5[12:1]*p6[12:1],,,2b<4[16:3],,,{8}A8/B8/A1/B1/E1f,{32},,,,,,,,7,
8,1,2,3,4,5,6,{16}2b/7bv4[12:1]*q3[12:1],,,7b>5[16:3],,,{8}A1/B1/A8/B8/E1f,{32},,,,,,,,2,
1,8,7,6,5,4,3,{16}7b,8,5,2,6b,1,4,3,{8}7h[8:1],{16}2b,5,
4,7b,3,8,2b,6,4,5b,1,7,{8}3b,{16}4x-1[8:1]/8x-5[8:1],,,8/4,
,,,,3-8[8:1]/7-4[8:1],,,3/7,,,,,2x/6,3/7x,4x/8,5/1x,
,7/4x,,6x/3,,5/2x,,4x/2-6b[8:1],5/2x,2/6x,7/2x,8b/2b/Cf,,,,,,,{8}
