&title=水饺
&artist=孙振博
&first=0
&des=B(@A@)D
&clock_count=4
&lv_7=醋
&inote_7=(156){1},
2bq7[2:1]/7bv2[2:1],
1p4[2:1]/4v1[2:1],
6bq3[2:1]/3bv6[2:1],
1-4<5-8>2b[8:5]/8-5>4-1v8>2b[8:5],
3xv8[2:1]/8xp3[2:1],
2v5[2:1]/5q2[2:1],
7bv4[2:1]/4bp7[2:1],
2-5<6-1>3b[8:5]/1-6>5-2v1>3b[8:5],
{8}6>3[8:1],6,1v4[8:1]*p4[8:1],1,,,3-8[8:1],3,
7<4[8:1],7,2v7[8:1]*q7[8:1],2,,,8q5[8:1],5v8[8:1],
8,,2>5[8:1],5q2[8:1],2,,6x,6x,
1-5[8:1],1,7-3[8:1],7,8v5b[8:1]*q5b[8:1],,,,
4-1b[8:1],4,5-8b[8:1],5,2-6[8:1],,1-5[8:1],1,
3,3,6-3b[8:1]*>3b[8:1],,{24}E6f,E5f,E4f,{8},2v7[8:1]*q7[8:1],,
2,,1-4[8:1]/8-5[8:1],,1/8,,2-5[8:1],2,
7<4[8:1],7,8v5[8:1]*q5[8:1],,8,,1-5[8:1],1,
6v3[8:1]*q3[8:1],6,,,2-7[8:1],2,3-6[8:1],3,
4-1[8:1],4,8v5[8:1]*q5[8:1],8,,,6,4,
5<8[8:1],5,4v2b[8:1]*v6b[8:1],3,4v1b[8:1]*v7b[8:1],,4,,
8-4[8:1],8,3v6[8:1]*p6[8:1],3,,,5,4/6,
3,2/5,6,7/3,2,1/6,7,8/2,
3-7[8:1],3,1v4[8:1]*p4[8:1],1,,,2<6b[8:1]*>6b[8:1],1/3,
2,,4v7[8:1]*p7[8:1],4,,,6p4[4:1],6,
Cf,,3<6p2[16:5],3,6,8b,8b,8b,
7p2[8:1],2v7[8:1],7,1,1,2p5[8:1],5v2[8:1],2,
6,7-3[8:1],1-5[8:1],7,1,8,8v5[8:1],3v8[8:1],
8,3,6v1[8:1],1q6[16:3],6,2,2,3,
7<4[8:1],4>1[8:1]*>6b[4:1],1,,C,,4v1[8:1]*q1[8:1],,
4b,,2pp1[16:5],2,1,8,7,6<1[8:1],
5,4-8[8:1],3-7[8:1],4,3,,1-5[8:1],,
1b/6b,,7<6>5>4>3>2<1<8[4:1],,{32}C,E8,E7,E6,E5,E4,E3,E2,{8}E1,,
4v1[8:1]*q1[8:1],,4,,3/6,7,8q5[19.5#64:1]*v5[19.5#64:1]/2,1,
6>3<6>3<6>3<6>3<6>3<6[8:10]/8hb[2:3],,,,,,,,
,,,,,,8,,
3<6[8:1],6>3[8:1],3,,7v1[8:1],1<3[4:1],7,3,
2-6[8:1],2,8v3[8:1]*v5[8:1],8,,,1p4[19.5#64:1]*v4[19.5#64:1]/7,8/2,
3<6>3<6>3<6>3<6>3<6>3[8:10]/1hb[2:3],,,,,,,,
,,,,,,1,,
6>3b[8:1],3<6b[8:1],6,,2q8b[8:1],8>3b[8:1],2,5,
6<1[8:1],2>5[8:1],6-2[8:1],2,6,,4b/8b,,
{8}6>3[8:1],7,1v4[8:1]*p4[8:1],2,1,,3-8[8:1],2,
7<4[8:1],6,2v7[8:1]*q7[8:1],3,2,,8q5[8:1],5v8[8:1],
8,,2>5[8:1],5q2[8:1],2,,6x,6x,
1-5[8:1],2,7-3[8:1],6,8v5b[8:1]*q5b[8:1],,,,
4-1b[8:1],5-8b[8:1],4,5,2-6[8:1],1-5[8:1],2,1,
3,3,6-3b[8:1]*>3b[8:1],,{24}E6f,E5f,E4f,{8},2v7[8:1]*q7[8:1],,
2,,1-4[8:1]/8-5[8:1],,1/8,,2-5[8:1],2,
7<4[8:1],7,8v5[8:1]*q5[8:1],,8,,1-5[8:1],1,
6v3[8:1]*q3[8:1],6,,,2-7[8:1],2,3-6[8:1],3,
4-1[8:1],4,8v5[8:1]*q5[8:1],8,,,6,4,
5<8[8:1],5,4v2b[8:1]*v6b[8:1],3,4v1b[8:1]*v7b[8:1],,4,,
8-4[8:1],8,3v6[8:1]*p6[8:1],3,,,5,4/6,
3,2/5,6,7/3,2,1/6,7,8/2,
3-7[8:1],3,1v4[8:1]*p4[8:1],1,,,2<6b[8:1]*>6b[8:1],1/3,
2,,4v7[8:1]*p7[8:1],4,,,6p4[4:1],6,
Cf,,3<6p2[16:5],3,6,
