&title=[滑]ベイビーヘイロー
&artist=鎖那
&first=0.05
&des=MWHxmj
&lv_7=13+?
&inote_7=(95)
{4},,,1?<2[2:1],
{4},,6?pp5[4:1],2?<3[2:1],
{8},,,6?V85[16:3],,,2?<3[2:1],,
{4},,6?pp5[4:1],3?>4[2:1],
{4},,3?-1[16:1],8?w4[16:1],
{8}4?>5[2:1],,,,5?-2[16:1],5?-8[16:1],1?w5[16:1],,
{2}5?<4[2:1],{16},4?pp5[8:1],,,5?w1[16:1],,,,
{8}1?>8[2:1],,,,8?-3[16:1],8?-5[16:1],4?>8[4:1],2?<6[4:1],
{8}8?<4[4:1],6?>2[4:1],4?>8[4:1],2?<8[8:1],8?-5[8:1]*-3[8:1],,4?w8[16:1],,
{8}8?<1[2:1],,,,1?-6[16:1],1?-4[16:1],5?-8[8:1],8?-4[8:1],
{8}4?-2[8:1],2?-5[8:1],5?-7[8:1],7?-4[8:1],4?-8[8:1]*-1[8:1],,1?w5[16:1],,
{8}5?<4[2:1],,,,4?-7[16:1],4?-1[16:1],8?qq4[2:1],,
{16},,,,,4?qq8[16:7],,,,,,,1?-5[16:1],,,7?-4[16:1],
{16},,3?-8[16:1],,,5?qq4[16:3],,,4?-7[16:1],,4?-1[16:1],,8?-4[16:1],,,2?-5[16:1],
{16},,6?-1[16:1],,,,,,4?>7[4:1],,,,5?-1[16:1],,,3?-8[16:1],
{16},,7?-4[16:1],,2?v3[8:1],,,,5?-8[16:1],,5?-1[16:1],,7?-3[16:1],,,1?-4[16:1],
{8},5?-8[16:1],8?w4b[8:3],,,,5?<1[8:3]*>1[8:3],,
{4},2?<6[8:3]*>6[8:3],,5?<4[16:7],
{16},,,4?pp4[8:3]*qq4[8:3],{4},,3?<7[8:3]*>7[8:3],
{4},8?<4[8:3]*>4[8:3],,3?-7[4:1]/5?-1[4:1],
{8},7?pp2[8:3],,,{16},3?s7[16:3],,,7?q1[4:1],,,,
{16},6?z2[16:3],,,2?p8[4:1],,,,,3?s7[16:3],,,7?V14[4:1],,,,
{16},5?pp7[8:1],,5?V36[16:3],,,6?-2[8:1],,6?-1[8:1],,,3?V51[16:3],,,6?V48[16:3],,
{16},8?-6[8:1],,,4?s8[16:5],,,,,,,1?>5[4:1]/5?<1[4:1],,,,5?p1[4:1]/1?p5[4:1],
{16},,,1?pp8[8:3]/5?pp4[8:3],{4},,5?>6[2:1],
{4},,2?pp1[4:1],6?>7[2:1],
{8},,,,3?-1[16:1],,8?<6[8:1],6?>4[8:1],
{8}4?>2[8:1],2?<8[8:1],,,8?v5[16:1],8?v3[16:1],5?<7[8:1],7?v1[8:1],
{8}1?v3[8:1],3?<5[8:1],,,5?v6[16:1],5?v4[16:1],4?>2[8:1],2?<8[8:1],
{8}8?<6[8:1],6?>4[8:1],,,4?v1[16:1],4?v7[16:1],1?>3[8:1],3?v5[8:1],
{8}5?v7[8:1],7?>1[8:1],,,1?v2[16:1],1?v8[16:1],8?p5[4:1],,
{8}5?>3[8:1],3?>1[8:1],,,1?v6[16:1],1?v4[16:1],6?<8[8:1],8?v2[8:1],
{8}2?v4[8:1],4?<6[8:1],,,6?v8[16:1],6?v4[16:1],4?p1[4:1],,
{8}1?<7[8:1],7?<5[8:1],,,5?v2[16:1],5?v8[16:1],2?>4[8:1],4?v6[8:1],
{8}6?v8[8:1],8?>2[8:1],,,2?v4[16:1],2?v8[16:1],2?-6[16:1],{16},8?-5[16:1],
{8},4?-1[16:1],,,8?w4[16:1],,6?-2[16:1],{16},4?-1[16:1],
{8},8?-5[16:1],,,4?-1[16:1],4?-7[16:1],2?-6[16:1],{16},8?-5[16:1],
{8},4?-1[16:1],,,8?-5[16:1],8?-3[16:1],6?-2[16:1],{16},4?-1[16:1],
{8},8?-5[16:1],5?w1b[8:3],,,,8?<4[4:1]*>4[4:1],,
{4}4?qq2[8:1],2?<6[4:1]*>6[4:1],6?qq4[8:1],7?pp6[4:1],
{4}6?qq7[4:1],2?qq3[4:1],3?pp4[8:1],3?>7[4:1]*<7[4:1],
{8}7?pp1[8:1],,1?>5[4:1]*<5[4:1],,5?pp7[8:1]*qq3[8:1],,,6?-2[8:1]/4?-8[8:1],
{8},2?qq7[4:1],,6?V84[16:3],{16},3?qq3[16:3],,,3?<1[16:3],,6?-2[16:1],,
{16},5?pp5[16:3],,,5?>7[16:3],,2?-6[16:1],,,3?pp3[16:3],,,3?-1[16:1],,8?V27[8:1],,
{16},4?z8[16:3],,,7?<4[8:1],,4?V61[16:3],,6?-2[16:1],,,3?-7[16:1],7?V14[16:3],,,8?<5[8:1],
{16},5?pp5[16:3]*qq5[16:3],,,5?-1[8:1],,1?V37[16:3],,3?-8[16:1],,,1?>5[4:1]*<5[4:1],,,,5?p1[4:1]*q1[4:1],
{16},,,1?pp4[8:3]*qq6[8:3],{4},,5?p3[4:1],
{4}2?<6[4:1],6?p4[4:1],1?<5[4:1],5?p3[4:1],
{16}2?<7[16:3],,,7?w3[16:3],,,,4?w8[16:3],,,,7?q2[16:5],,,,,
{4}3?<7[4:1],7?q1[4:1],4?<8[4:1],8?q2[4:1],
{4}3?<7[4:1],7?q1[4:1],{16}5?V74[16:3],,,4?-8[16:1],3?qq4[4:1],,,,
{4}7?V58[16:3],2?pp1[4:1],6?V85[16:3],2?V47[16:3],
{16}5?z1[16:3],,,1?>4[8:1],,4?z8[16:3],,,8?<5[8:1]*>3[8:1],,,6?z2[16:3],,,3?s7[16:3],,
{16},7?-5[16:1]*-1[16:1],,2?pp2[16:3],,,,6?pp6[16:3],,,,4?-2[16:1],4?V68[8:1],,8?-4[16:1]/2?-6[16:1],,
{16}4?-1[16:1],,2?qq7[4:1],,,6?qq6[16:3],,,8?-3[16:1],6?s2[16:3],,,4?>8[8:1],,8?w4[8:1],,
{16},3?z7[16:3],,,5?<1[8:1],,1?w5[8:1],,,6?s2[16:3],,,3?V15[16:3],,,,
{16},6?-8[16:1],,1?V37[16:3],,,7?V51[16:3],,5?-8[16:1],,,2?V83[8:1],,,7?V16[8:1],,
{16},4?qq4[16:3]*pp4[16:3],,,4?V28[4:1],,,,8?-4[16:1],,,5?<1[4:1]*>1[4:1],,,,1?p5[4:1]*q5[4:1],
{16},,,5?pp6[8:3]*qq4[8:3],{4},,8?<1[4:7],
{1},
{4},,,3?pp3[2:1],
{8},,7?pp7[2:1],,,,2?-4[8:1],4?-6[8:1],
{16}6?-8[8:1],,8?-2[8:1],,,7?z3[16:3],,,3?<8[4:1],,,,8?-2[16:1]*-3[16:1],
