&title=kakera
&artist=CLTH
&first=0
&des=热水壶
&lv_5=14
&inote_5=(167)
{1},
{2},{16},,,,,,1,2,
{1}3qq5[8:22],
{2},{16},,,,,,5,6,
{1}7qq1[8:12]*qq1[8:12],
{2},{16}3h[12:1],,,4h[12:1],,,5,,
{8}1b/5b>1[4:1],,{16}8,7,6,5,{8}4<8[4:1],,{16}1,2,3,4,
{16}5-1[8:1],,,6,5,,8,7,6-1[8:1]/2v5[8:1],,,,2/6,,,,
{8}1b/5bV31[4:1],,{16}8,7,6,5,{8}4V68[4:1],,{16}1,2,3,4,
{16}5,,1,2h[8:1],,4,3,4h[16:3],3>5[4:1],,,,7b/3b,,,,
{16}1,8,7,6,3,2,1,8,6,5,6,5,7,4,7,4,
{16}6,7,8,1,3,4,5,6,1,2,1,2,8,3,8,3,
{16}7,5,6,2,4,3,8,1,{32}2b/7b,,,,,,2b/7b,3/6,,,,,2b/7b,3/6,4h[16:9]/5h[16:9],,
{1},
{8}3h[16:3]/4h[16:6],,,1h[16:4],,5h[8:1],2h[8:1],6h[8:1],
{16}3h[16:3],,,7h[16:5],,,4,,{16}4b-2[10:1],,,,7b-5[10:1],,,,
{16}1b,,,2h[16:3],,,4h[16:4],,,,1h[8:1],,5h[8:1],,2h[8:1],,
{16}6h[16:3],,,3h[16:3],,,7,,{16}3,4,,6,5,,3/6,,
{16}3,,4,,3,,5,,2,,2,,8,,1,,
{16}7h[8:1]/5h[8:1],,,4h[8:1]/6h[8:1],,,3/5,,{16}2b-8[10:1]/6,,,,7b-5[10:1],,,,
{8}3b,2,4,2,6,5,7,7,
{8}4>1[8:1],8,4qq5[16:5]*V68[16:5],,{2},
{16}3>8[8:1],4,2,,7h[4:1],,,,5>2[8:1],6,4,,8h[4:1],,,,
{16}1,8,{8}1,7h[8:1],3h[8:1],{16}5h[16:3],,,2,4<7[16:2],,1,,
{8}2V41[4:1]/4,1,7V16[4:1],,,,4,3,
{16}5/2,,1/8,2/7,3>5[16:5],,5,,2,,,,,,,,
{16}8h[8:3]/1,,,2,3h[4:1],,,,6h[8:3],,,3,4,,5,,
{8}4/6,7,1/8,2,{16}3h[8:1]/4h[8:1],,,2/5,,,1,8,
{16}1h[8:3],,,7,6h[4:1],,,,3h[8:3],,,6,5,,4,,
{8}5/3,2,8/1,7,{16}6h[8:1]/5h[8:1],,,7/4,,,1/2,3/8p6[16:33],
{1}4p2[2:4]/7,
{4},,,,
{4},,2V41[2:1]/7V58[2:1],,
{2},3-5[10:1]/6-4[10:1],
{16}1b/8b,,6,4h[8:1],,5,3h[8:1],,1,,2,8,3,7,4,6,
{16}3h[8:1],,5,2h[8:1],,6,4h[8:1],,8,,1,7,2,6,3,5,
{16}2,8,4,6,1,7,3,5,{8}7b/8b,1b/2b,3b/4bp6[8:2]*>6[4:1],5b/6b,
{8},,,,1bs5[8:1]*z5[8:1],,1b,,
{8}2-5[8:1]/6-1[8:1],,2<5[4:1]/6,,5<2[4:1],4,3-8[8:1],,
{8}3,,{16}7/1,6,5,4,{8}3v8[8:1]/2>5[8:1],,2/3,,
{8}1-6[8:1]/5-2[8:1],,1>6[4:1]/5,,6>1[4:1],7,8-5[8:1],,
{8}8,,{16}8/4,1,2,3,4h[8:1]/8h[8:1],,,3h[8:1]/7h[8:1],,,2/6,,
{16}3,4,3,4,2,5,2,5,1b-5[8:1],,,8,1,,7h[8:1],,
{16}5,6,5,6,4,7,4,7,3b<6[8:1],,,1,3,,8h[8:1],,
{24}5,4,3,2,1,8,{8}7/5<3[8:2],4,2b,,4b,,
{16}7b,5,6,4,8,3,4,2,{16}5b,,,6b/2b,,,7b/3b,,
{8}7-4[8:1]/3-8[8:1],,7>4[4:1]/3,,4>7[4:1],5,6-1[8:1],,
{8}6,,{16}2/8,3,4,5,{8}6v1[8:1]/7<4[8:1],,7/6,,
{8}8-3[8:1]/4-7[8:1],,8<3[4:1]/4,,3<8[4:1],2,1-4[8:1],,
{8}1,,{16}1/5,8,7,6,5pp7[8:1]/1pp3[8:1],,,,1/5,,,,
{16}3,4,2,,6,5,7,5,{16}6h[8:1],,3,7,4,6,3h[8:1],,
{16}8,1,7,,4,5,3,5,4h[8:1],,6,2,5,3,6,,
{16}1,8,1,8,1,8,1,8,1,8,1,8,1,8,1,8,
{4}2b/7b,,,,
{8}1b/4b<8[4:1],,{16}1,2,3,4,{8}5h[16:4],,{16}1,8,7,6,
{16}5/4-8[8:1],,,1,4,,2,3,4-1[8:1]*-7[8:1],,,,4,,,,
{8}8b/5bV31[4:1],,{16}8,7,6,5,{8}4h[4:1],,{16}8,1,2,3,
{16}4/6,,7,5h[8:1],,6,1,4h[16:3],3>5[4:1],,,,3b/7b,,,,
{8}1h[4:1],,{12}3,3,4,{8}2h[4:1],,{12}8,8,1,
{8}7h[4:1],,{12}5,6,5,{8}7>5[4:1],,3b,,
{8}1h[4:1],,{12}6,6,5,{8}7h[4:1],,{12}3,3,4,
{16}2h[256:1],1,3,8,4,7,5,6,8h[256:1],7,1,6,2,5,3,4,
{16}3b-6[4:1],,,5,,,5,,7-2[4:1],,,1,,,1,,
{16}3v6[4:1],,,4,,,4,,7v2[4:1],,,8,,,8,,
{16}3<6[4:1],,,4,,,5,,7>2[4:1],,,8,,,1,,
{16}3V51[4:1],,,5,,,6,,7v4[16:3],,,1,,,2,,
{16}3,2,1,8,6,5,4,3,1,2,3,4,1,8,7,6,
{16}4,3,2,1,6,7,8,1,3,3,,4,4,,1b,,
{16}6,3,4,3,7,3,4,3,{16}6,5,7,1,5,4,8,2,
{1}6bp3[1.4371257##1.65],
{1}2h[2:1],
{4}3<8[16:12],2,1,8qq3[16:19],
{1}1h[2:1],
{4}3>6[4:2],4q5[4:2],,,
{1}8b>7[4:2]*<1[4:2],
{8}1h[8:1],2h[8:1],3h[8:1],4h[8:1],5h[8:1],6h[8:1],7h[8:1],8h[8:1],
{4}1bq5[4:2],,6,,7q3[4:2],,4,,
{8}5qq1[8:5]/6,,,,8,,7,,
{8}6qq8[8:5],,,,2,,3,,
{4}4h[32:47],8,7bv8[10:1]*v8[10:1],,
{4}8h[32:15],,{48}3b/7b,2b/6b,1b/5b,8b/4b,,,{8},,,
{16}3b,4,3,4,2,5,2,5,{16}1b-5[8:1],,,8,1,,6h[8:1],,
{16}5,6,5,6,4,7,4,7,{16}3b<6[8:1],,,1,3,,8h[8:1],,
{24}5,4,3,2,1,8,{8}7/5<3[8:2]*<3[4:1],4,2b,,4b,,
{16}7b,5,6,4,8,3,4,2,{16}5b,,,6b/2b,,,3b/7b,,
{8}7>2[8:1]/3<6[8:1],,7/3V16[32:7],,6V83[32:7],5,4w8[8:1],,
{8}4,,{16}8,7/1,6/2,5/3,4pp3[8:2],,,,4/3>7[16:3],,,,
{16}1h[8:2],,,,{24}6,5,4,3,2,1,{8}8bq5[8:1]*p3[8:1],,8,,
{8}1/7V52[32:7],,2V47[32:7],1,8bw4[8:1],,8b,,
{16}3b,4,2,,6b,5,7b,5,{16}6h[8:1],,3b,7,4b,6,3h[8:1],,
{16}8b,1,7,,4b,5,3b,5,4h[8:1],,6b,2,5b,3,6,,
{16}1,8,1,8,1,8,1,8,1,8,1,8,2,7,3,6,
{4}4h[16:11]/5h[16:6],,{16},,,{32}2,1,8,7,6,5,3b,2b,1bbs5[32:22]*-5[32:22],8b,
{32}7b,6b,5b,4b,3b,,,,{4},,,{4}2-7[8:4]/6-3[8:4],,,,
(167)
{12}2h[6:1]/8,,3h[6:1],,4,4,6h[6:1],,7h[6:1],,8,8,
{12}3h[6:1],,1h[6:1],,5,5,{16}7bp3[8:1],,,3,7,,2h[8:1],,
{16}1,2,1,2,8,3,8,3,7,4,7,4,6,5,6,5,
{16}7,3,4,3,7,4,5,4,8-5[8:1],1,,1,8,,2b,,
{16}5,1,7,3,6,4,7,2,{16}5,1,5,3,6,2,6,4,
{1}8b,
E
