&title=Antler
&artist=Juggernaut.
&first=0.07
&des=Killer°
&lv_5=14+
&des_5=Killer°
&inote_5=
(90){4},{8},,,,,,5h[8:1],
E4,,,3h[8:1],E2,,,1h[8:1],
E8,,,7h[8:1],E6,,6/4,
3h[8:1],E5,,,5h[8:1],E7,,,7h[8:1],
E1,,,1h[8:1],E3,,4/2,
3/5b<8[8:1],4,4,{16}3,3,{8}4>1[8:1],5,5,6,
{16}7/8,6,5/4,3<6[8:1],1h[16:1]/2h[16:1],,,8xh[16:1],,,,,{8}E8,E7,
4/2-6[8:1],4,4,{16}5,5,{8}4-8[12:1],{24}6h,2h,8h,{8}4h,7,
7/5,{16}6h[16:1],E5,,E4/E3,,E2/E1,,7h[16:3],6,5,{4}4bh,
{16}2-6[8:1],2,4,4,{4}B2,{16}7-3[8:1],7,5,5,{4}B7,
{16}1-5[8:1],1,5,5,{4}B1,{16}8-4[8:1],8,4,4,{4}B8,
{16}2-5-1[16:3],5,3,4,{4}E3,{16}7-4-8[16:3],4,6,5,{4}E7,
{16}2,6-2-8-4[8:3],3,5,,E5/B6,,E4,,E3,,1h[4:1],,7,6,5,
{8}2/4b>1[8:1],5,6/4,{16}6,6,{8}8/7<4[12:1],{24}3h,5h,1h,{8}7h,3,
{16}1/2,3,5/4,6>3[8:1],7h[16:1]/8h[16:1],,,1xh[16:1],,,,,{8}E1/E3,E8/E4,
6b/5b,{32}5-1[16:1],7,5,7,5,,,6,{16}5h,{32}6,7,{16}2/8-4[16:1],8/2,{8}8/2,8/1,{32}3,5,{16}3,
7/4,6,{32}7,5,{16}7,{64}2/8h[64:3],3,4,5,,,{32}7,4,7,4,7,{16}B4/E5,E7/B6,E1/B8,E3/B2,{4}Ch[32:1],
{8}6b/3bV15[8:1],{16}B3/B4,B8/B7,{8}3x,{16}6,6,7b-4[64:5],7,{32}1>3[64:3],5-8[0.75##0.1667]*-8[0.75##0.1667],{16}1,{8}7,{16}1V75[8:1],5,
2bv4[32:3],2,1/3,3,{32}2b-8-5-3b[16:3],{64},,,,,,,,,,,,A1,B1,2bx/Cf,B5,{32}A5,,,,,,,{8}2x-6[16:1],1x,
2b/8bV64[8:1],{16}B8/B7,E3/B3,{8}8x,{16}2,2,1bV37[8:1],1,{32}5-7[32:1],8-4[0.75##0.1667]*-4[0.75##0.1667],{16}5,{8}1,{16}5,8,
{8}6b-2[16:1],{16}8,7-4-1-6b[4:1],1b/6b,,,7bx/Cf,,2xh[16:1],,2xh[16:1],,,{8}3x,
6b/3b>1q5[8:1],{16}B3/B4,B8/B7,{8}3x,{16}6,6,7b-4[64:5],7,{32}1-3[64:3],5v8[0.75##0.1667]*v8[0.75##0.1667],{16}1,{8}7,{16}1V75[8:1],5,
2bv4[32:3],2,1/3,3,{32}2b-8-3-7b[16:3],{64},,,,,,,,,,,,A1,B1,2bx/Cf,B5,{32}A5,,,,,,,{8}5x-1[8:1],6x,
{16}5b/7bp4[32:5],7,6,6,{4}7b/3b>8[32:3],{8}5b/3b<4-6[32:3],{32}7-3[16:1],2-8[0.75##0.1667]*-8[0.75##0.1667],{16}7,{8}3b,{16}7,2,
4b-8[16:1],4,3,3,2/4bq5<3b[8:3],2h[8:1],,,{4}4b/Cf,{64}D8,A8,D1,A1,D2,A2,D3,A3,,,,,,,,,{8}4h[16:1],
{16}E6,E7,,,,,{8}2h[16:1],{16}E4,E5,,,,,{8}8h[16:1],
{16}E2,E3,,,,,{8}6h[16:1],{16}E8,E1,,,{8}5/3,
3xh[16:1],2xh[16:1],{16}E7,E6,E5,E4,{8}1xh[16:1],8xh[16:1],{16}E5,E4,E3,E2,
{8}7xh[16:1],6xh[16:1],{16}E3,E2,E1,E8,{8}5xh[16:1],4xh[16:1],{16}E1,E8,E7,E6,
{8}2V48[8:1],{16}6,6,{8}E3,5h,6V84[8:1],{16}2,2,{8}E7,1h,
8V26[8:1],{16}5,5,{8}E1,5h,4V62[8:1],{16}1,1,{8}E5,1h,
{16}8/4,8/4,{32}2-6[16:1],6,2,6,{8}2,2/1,{16}5/8-4[16:1],8/5,{8}8/5,8/2,{32}1,5,2,6,
{64}3,4,{32}5,{16}7,{32}7,5,{16}7,7/1,1,{32}1,3,{16}1,{64}2h[64:1],3h[64:1],4h[64:1],5h[64:1],6h[64:1],7h[64:1],8h[64:1],1h[64:1],2h[64:1],3h[64:1],4h[64:1],5h[64:1],6h[64:1],7h[64:1],8h[64:1],1h[64:1],E2,E3,E4,E5,E6,E7,E8,E1,E2,E3,E4,E5,,,,,{16}7x<4[16:1],
{32}7,1,7,1,7,{64}B8,C,7/B4,,,,,,,2x>5[16:1],,,,2,,8,,2,,8,,2,,B1,C,2/B5,,,,,,,,,{32}7<4[16:1],7,1,1,3,3,5,5,
{16}7qq6[16:1],{64}8,1,{32}2,{64}7,6,{32}5,{64}8,1,{32}2,{64}7,,,,,,,2pp4[16:1],3,4,,1,8,7,,2,3,4,,1,8,7,,2,,,,,,,,,B7,B6,{32}B5,{64}B1,B2,{32}B3,{64}E7,E6,{32}E5,{64}E1,E2,{32}E3,
{16}7x<4[16:1],{32}7,1,7,1,7,{64}B8,C,7/B4,,,,,,,2x>5[16:1],,,,2,,8,,2,,8,,2,,B1,C,2/B5,,,,,,,,,{32}7<4[16:1],7,1,1,3,3,5,5,
{16}7qq6[16:1],{64}8,1,{32}2,{64}7,6,{32}5,{64}8,1,{32}2,{64}7,,,,,,,2pp4[16:1],3,4,,1,8,7,,2,3,4,,1,8,7,,2,,,,,,,,,3h[16:3]/A1,D1,A8,D8,A7,D7,A6,D6,A5,D5,{32}A4,,,{16}2/B6/E7,
{32}1,8,{16}1,B2/B1/7-3[16:1],{32}6,5,{16}6,4h[8:1],7-5-1-3b[32:5],,1/4,8,7bx/4h[8:1],,,4x,4x,
7/B3/E3,{32}8,1,{16}8,B7/B8/2-6[16:1],{32}3,4,{16}3,5h[8:1],2-4-8-6b[32:5],,8/5,1,2bx/5h[8:1],,,5x,5x,
2x>5[16:1],{32}2,8,2,8,2,{64}B1,C,2/B5,,,,,,,7x<4[16:1],,,,7,,1,,7,,1,,7,,B8,C,7/B4,,,,,,,,,{32}2>5[16:1],2,8,8,6,6,4,4,
{16}2pp3[16:1],{64}1,8,{32}7,{64}2,3,{32}4,{64}1,8,{32}7,{64}2,,,,,,,7qq5[16:1],6,5,,8,1,2,,7,6,5,,8,1,2,,7,,,,,,,,,A1,A2,A3,A4,A5,A6,A7,A8,A1,A2,A3,A4,A5,A6,A7,A8,
{1}1xw5[8:13],
{8},,,,,,,,2/8b<5[8:1],
1,1,{16}2,2,{8}1>4[8:1],8,8,7,
{16}6/5,7,8/1,2<7[8:1],4h[16:1]/3h[16:1],,,5xh[16:1],,,,,{8}E6,E7,
5/3-7[8:1],5,5,{16}4,4,{8}5-1[12:1],{24}3h,7h,1h,{8}5h,2,
2/4,{16}7h[16:1],E1,,E2/E3,,E4/E5,,6h[16:3],7,8,{4}1bh,
{16}2-6[16:1],3,4,5,{4}2/6h,{16}7-3[16:1],6,5,4,{4}7/3h,
{16}1-5[16:1],2,3,4,{4}1/5h,{16}8-4[16:1],7,6,5,{4}8/4h,
{16}2-6[16:1],6-2[16:1],3,5,{4}2h,{16}7-3[16:1],3-7[16:1],6,4,{4}7h,
{16}5/1,1-5[16:1],5h[16:1],1-7[16:1],,1-3[16:1],,1x-6[16:1],,1x-4[16:1],,1x,,1x,7,7,
{8}7/1b>4[8:1],8,8,{16}7,7,{8}8<5[8:1],1,1,2,
{16}3/4,2,1/8,7>2[8:1],5h[16:1]/6h[16:1],,,4xh[16:1],,,,,{8}E4,E3,
7/1,{32}7-3[16:1],5,7,5,{8}7,{16}7/1-5[16:1],8,{32}2,4,2,4,{8}1,{32}4/6,7,{16}8,{32}2,3,{16}6/4,
{32}5,7,4,6,3,5,2,4,1,6,4,7,2,5,3,8,1w5b[16:1],8,1,8,1,8,{16}1,{4}1b/C/B7/B3,
{8}8x<5[1.6667##0.2867]*>3[1.6667##0.2867],7h[8:3]/1h[8:3],{4},{16},,{128}8,D8,D1,A7,A1,D7,D2,A6,A2,D6,D3,A5,A3,D5,{64}D4,{8}4x-7[32:3],{16}2x/6x,5x/1x,
8/4-8[8:1],8,1,1,2/4-2[16:1],2-6-8b[32:3],{64},,,,3bh[16:5],D6,A5,D5,{4}A4f,{8}1pp6[16:3],8,
A1f/7bV53[8:1],8,{64}5h[8:1]/7-3[16:1],,,,,,,,,D3,A2,{384}D2,,,,,4x,{64}A1,D1,A8,{384}D8,,,,,3x,{16}A7f,2,{32}1-5[16:1]*-5[16:1],4,1,4,{8}1V75[32:3],1/6,
{64}4bh/1bV35[32:3],3,{32}2,,,{8}7xh[16:1],{64}8bh/1qq5b[16:3],7,{32}6,,,,,{16}1bx/B2/B3/E3f,,4,4,3,{8}3qq4[16:3],6/4,
A3f/5V71[8:1],6,{64}7h[8:1]/5-1[16:1]*-1[16:1],,,,,,,,,D2,A2,{384}D3,,,,,6,{64}A3,D4,A4,{384}D5,,,,,6,{8}A5f,{32}7-3[16:1]*-3[16:1],2,7,2,{8}7V53[32:3],7/4,
{16}1bh/7bV13[32:3],1,8,8,6bh/7qq3b[16:3],6h[8:1],{64},,,,,A2,D2,A1,{4}D1/A7f,{8}1>6[8:1],6q7[8:1],
{4}5bh[8:1]/A1f,{384}6bx-3[16:1],,,,,5,D8,,,,,4,{64}A8,D1,A1,D2,{32}A2,,,{16}1,{8}6/1V74[32:3],{32}1,4,2,4,{8}1b-3[16:1],6xh[16:1],
{16}5/1b-5[16:1],5,6,6,7/1-7[16:1],7-3-5b[8:1],,6,{4}6bh[16:3]/A1f,{16}A7/E8/A8,E2/A1/A2,A6/E6/A5,E4/A4/A3,
{64}2/E7,B6,{32}B5,{16}2,5x/3,6/4,{32}7-3[16:1],5,7,5,6,4,6,4h[32:7],{8}7x,{32}E4,E5,{16}E6,{32}2-6[16:1],4,2,4,3,5,3,5h[32:7],
{128}2bx,Cf,,,,,,,,,,,,,,,{16}8,8,{32}8x,6,8x,6,8x,5,8x,5,1x,4,1x,4,1x,4,1x,4,1xpp5b[16:3],5,1x,5,1x,6,1x,6,
{8}A1f,{64}E1,E8,{32}E7,,,{16}6bxh,7bxh,8bh/4xh[4:1],1bh,{64}2xv3-5[8:1],D2,A1,D1,A8,D8,A7,D7,A6,D6,,,,,,,{8}8/2<5[64:11]*<5[64:11],1,
{4}2b/8bh[4:1],{64}4x,D4,A3,D3,8x,D8,A7,D7,1x,E2,B2,B3,5x,E6,B6,B7,{16}4bxqq8b[32:5],4,{32}4,6,4,6,{16}A4f,{64}7bh,E7,E6,A5,,,,,,,,,7/E3,
B3,{32}B4,,,{16}4x/6,3/5,{32}2-6[16:1],6,3,5,2,6,3,5h[32:7],{8}2x,{32}E6,E5,{16}E4,{32}7-3[16:1],3,6,4,7,3,6,4h[32:7],
{128}7bx,Cf,,,,,,,,,,,,,,,{16}1,1,{32}1x,3,1x,3,1x,4,1x,4,8x,5,8x,5,8x,5,8x,5,8xqq4b[16:3],4,8x,4,8x,3,8x,3,
{8}A8f,{64}E1,E2,{32}E3,,,{16}3bxh,2bxh,1bh/5xh[64:15],8bh,{64}7xv6-4[8:1],D8,A8,D1,A1,D2,A2,D3,A3,D4,,,,,,,{8}1/7>4[64:11]*>4[64:11],8,
{4}7b/1bh[4:1],{64}5x,D6,A6,D7,1x,D2,A2,D3,8x,E8,B7,B6,4x,E4,B3,B2,{16}5bxpp1b[32:5],5,{32}5,3,5,3,{16}A5f,{64}2bh,E3,E4,A4,,,,,,,,,{16}7xh[4:1],
{256}B5,E5,,,,,,,,,,,,,,,B3,E3,,,,,,,,,,,,,,,{16}1x,1x,6h[16:3],{256}E3,B3,,,,,,,,,,,,,,,B7,E7,{16},{64},,,{128},{256}B2,B3,,,,,,,,,,,,,,,B7,B6,,,,,,,,,,,,,,,{16}1xh[4:1],{32}7,8,,2,3,4,5,6,
{16}2h[4:1],{256}B4,E5,,,,,,,,,,,,,,,B6,E7,,,,,,,,,,,,,,,{16}8x,8x,3h[16:3],{256}E7,B6,,,,,,,,,,,,,,,B2,E3,{16},{64},,,{128},{256}B7,B6,,,,,,,,,,,,,,,B2,B3,,,,,,,,,,,,,,,{16}8xh[4:1],{32}2,1,,7,6,5,4,3,
{16}2/6h[8:1],{256}B4,E5,,,,,,,,,,,,,,,E3,B2,,,,,,,,,,,,,,,{16}7,8-4[16:1],1,{256}A6,E7,,,,,,,,,,,,,,,E3,A2,,,,,,,,,,,,,,,{16}8,{32}1,2,3/5,6,{16}7,{32}4,6,4,6,3,5,3,5,
{16}3h[8:1],{256}B5,E5,,,,,,,,,,,,,,,E7,B7,,,,,,,,,,,,,,,{16}2,1-5[16:1],8,{256}A3,E3,,,,,,,,,,,,,,,E7,A7,,,,,,,,,,,,,,,{16}1,{32}8,7,6/4,3,{16}2,{32}5,3,5,3,6,4,6,4,
{64}E8,E7,E6,E5,3,2,1,8,,,,,E1,E2,E3,E4,5,6,7,8,,,,,{32}2,6,2,6,1,5,3,7,5,6,2,4,3,7,3,7,2,6,2,6,
{64}E2,E3,E4,E5,6,7,8,1,,,,,E1,E8,E7,E6,4,3,2,1,,,,,{32}7,3,7,3,8,4,6,2,4,3,7,5,6,2,6,2,5,1,{16}5,
2/6h[8:1],{256}B4,E5,,,,,,,,,,,,,,,E3,B2,,,,,,,,,,,,,,,{16}7,8-4[16:1],1,{256}A6,E7,,,,,,,,,,,,,,,E3,A2,,,,,,,,,,,,,,,{16}8,{32}1,2,3/5,6,{16}7,{32}4,6,4,6,3,5,3,5,
{16}3h[8:1],{256}B5,E5,,,,,,,,,,,,,,,E7,B7,,,,,,,,,,,,,,,{16}2,1-5[16:1],8,{256}A3,E3,,,,,,,,,,,,,,,E7,A7,,,,,,,,,,,,,,,{16}1,{32}8,7,6/4,3,{16}2,{32}5,3,5,3,6,4,6,4,
{1}7bpp7pp1>3q7b[16:11],
E
