&title=ヤミナベ!!!!
&artist=cosMo@暴走P
&first=0
&des=APMAYO
&lv_5=14+
&inote_5=(264){1},
{2}8,8,
{4}7,7,7,{8}7,1,
{8}6,6h[4:1],,5h[4:1],,4h[4:1],,3h[4:1],
,5,4,6,5,7h[8:3],,,
{12}4x,6,4,6,4,6,3x,5,3,5,3,5,
2x,4,2,4-8[8:1],,,3x,,,,,,
2x,4,2,4,2,4,3x,5,3,5,3,5h[4:1],
,,4,6,,5-1[8:1],7,,5x,,,,
3x,6,3,6,3,6,2x,7,2,7,2,7,
1x,2,3,8,7,6,2x,3,4,7,6,5,
{8}1x,4,3,4,2,4,3,4,
1>4[2:1],,5,,6,,7,,
{8}8x,5,6,5,7x,5,6,5,
8x<5[2:1],,4,,3,,2,,
1xq4[4:3],,,,,,,,
5xpp8[2:1],,,,3,,2,,
1b/7b,,3b/5b,,1b/7b,,3b/5b,,
2hb[16:3]/8hb[16:3],,4b/6b,,2hb[16:3]/8hb[16:3],,4b/6b,,
{12}3x,2x,1x,8x,7x,6x,5x,4x,3x,2x,1hx[12:14],,,,8,,7,,6,,5,,4,,,,,,
(200){16}2,4,2,4,3,5,3,5,4,6,5,7x,,,5hx[8:1],,
7,5,7,5,6,4,6,4,5,3,4,2x,,4hx[8:1],,
3,4,2,4,3,4,2hx[8:1],,6,5,7,5,6,5,7,4,6,
3x,5,2,4,1,5,2,6,3x,7,4,8,3,7,2,6,
1hb[8:3],,,,,,5,4,6h[16:3],,,7h[16:3],,,8,,
1h[16:3],,,2h[16:3],,,3,,4h[16:3],,,5h[16:3],,,6,,
3V15[4:1],,,,,,6,,6,,,,7,,,,7V51[4:1],,2,,3,,2,,{32}3x,4x,5x,,{16}7x,2x,8,1,8,1,
8-6[8:1]b,,3,3,8-4[8:1]b,,5,5,8,,3,2,1-5[8:1]b/8,,,,
1-3[8:1]b,,6,6,1-5[8:1]b,,4,4,1,,6,7,8-2[8:1]b/1,,,,
8-6[8:1]b,,4,4,8-3[8:1]b,,4,4,8-5[8:1]b,,4,4,8-4[8:1]b,,4,4,
8,,3,5,2,6,1,7,{6}8h[6:1],6h[6:1],4h[6:1],
(100){24}5hx[8:3],,,D5,A4,D4,A3,D3,A2,D2,,,1hx[8:3],,,D1,A8,D8,A7,D7,A6,D6,,,
(95){24}5x/A4,D4,A3,D3,A2,D2,A1/A8,D8,A7,D7,A6,D6,(90){16}A5/1hx[8:3],,,8,(87){8}8h[8:5],,
E1,C,E5,{32}3,,3,4,
(174){16}2h[8:1],,5,3,6,4,7,5,B7,,B5,,B4,,B2,,
2x,4,3,5,4x,6,5,7,8x,6,1,7x,2x,8,3x,1,
4x,5,5,3x,5,5,2x,5,1,,8,,2,,7,,
5,7,4,6,3x,5,2,6,1x,7x,,7x,2x,,2hx[8:1],,
4,2,5,3,6,4,7,5,B7,,B5,,B4,,B2,,
6x,8,7,1,8,2,1,3,B6,,B8,,B1,,B3,,
7x,5,6,5,8x,5,6,5,8hx[32:1],1,,1,8x,7,6,5,
2h[16:3]/4,,,3h[16:3],,,4h[8:1],,{32}8x,7x,6x,5x,4x,3x,2x,1x,8b/4b,,,,,,,,
{48}1bh[8:1]/6bx,5x,4x,,,,,,,1bh[8:1]/6bx,5x,4x,,,,,,,1bh[8:1]/6bx,5x,4x,,,,,,,1bh[8:1]/6bx,5x,4x,,,,,,,2bh[8:1]/7bh[8:1],,,,,,,,,,,,
,,,8h[8:1]/3x,4,5,,,,,,,8h[8:1]/3x,4,5,,,,,,,8h[8:1]/3x,4,5,,,,,,,8h[8:1]/3x,4,5,,,,,,,2/7,,,,,,,,,
(116){16}Cf,,,,,,,,,,3,6,2,7,1,8,
{48}2,3,4h[48:22],,,,,,,,,,7,6,5h[48:10],,,,,,,,,,,{48}3x-7[16:1]/6x-2[16:1],,,,,,,,3x/6x,
{48},,,,,,,,,,,,,,
(232){8}2-4[8:1]/6h[8:1],,6h[8:1],,1-5[8:1]/6h[8:1],,6h[8:1],,
7-5[8:1]/3h[8:1],,3h[8:1],,8-4[8:1]/3x,3x,3x,3x,
7>3v5[8:3],,4,,4,,2,2,
2<6v4[8:3]/5h[8:3],,,,,,,6,
{16},,7,8,6,,2,1,3,,7,5,6,,3,4,
2-6[8:1],,8-4[8:1],,2,,8,,,,2x,,3x,,4,,
5x,,,,4/6,,,,7hx[16:3],,,5,6,,4h[4:1],,
,,5,,2/7,,,,6h[4:1]/3h[4:1],,,,,,,,
3x,4,3,,7,,6x,5,6,,1,,2x,4,3,,
8,,7x,5,6,,1,,2,,3,,4,,5,,
6h[4:1],,,,1h[4:1],,,,8,,,,2V48[4:1]/7V51[4:1],,2/7,,
,,,,,,,,,,1/8,,1/8,,1/8,,
2/7,,,,3,,3h[4:1],,,,4h[4:1],,,,5h[4:1],,
,,6,,6h[8:5],,,,,,5,,4,,3,,
2/7,,,,4/5,,3/6,,,,1/8,,,,D7f/A7/A6,,B7f/B6/E7f,,Cf,,,,E3f/B2/B3,,,,D3f/A2/A3,,,,,,
4x,6,4,6,4x,6,4,6,3x,5,3x,5,3,5,3x,5,
2,7,2x,7,2x,7,2x,7,1x,8,1x,8,1x,8,1xs5[2:3],8,
(108)
{1},
(91){16}5v3>7[4:11],,4,,{24}6h[384:1],,4,,,5,,,4,5,,,3h[384:1],,5,,,4,
5,,,4,,,6h[384:1],,4,,,5,,,,5,,,3h[384:1],,,5,,,
4,,5,4,,,6h[384:1],,4,,,5,4,,4,5,,,3h[24:2],,,{24},,6,
6h[4:1],,,,,5,5h[4:1],,,,,4,4h[12:1],,3h[12:1],,2h[12:1],,1h[12:1],,{36}8,7,6,5/3,,,
(137){4}2,2,2,2,2,2,{16}2,,8,1,
8,1,8,,{4}1,1,
2/7,2/7,
{16}3/6,,3/6,,4/5,4/5,4/5s1[68.25#32:1]b,4h[16:6]/5h[16:6],,,,,,,4x/5x,,
(273){12}2x,4,3,7,5,6,3x,4,3,6,5,6,
2x,3,4,7,6,5,1x,2,3,8,7,6,
1x,7,2,6,3,5,2x,8,3,7,4,6,
1x,2,3,4/8,,8x,8x,7,6,5/1,,,
1b,,2b,,3b,,6b,,7b,,8b,,
8b/1b,,,8b/2b,,,2x,8,3,7,4,6,
1x,2,3,7,6,5,2x,3,4,8,7,6,
5x/4x,,,5xs1[8:1]b/4x,,,,,,,,,
(285){12}2x-4[8:1],,,2/6,,,1x-5[8:1],,,1/6,,,
7x-5[8:1],,7x,3,,3,8x-4[8:1],,8x,3,,,
2x,3,4,7,6,5,1x,2,3,8,7,6,
2x,1,3,7,8,6,1x-5[8:1],,,5,,,
7x,8,6,2,1,3,6x,5,7,3,4,2,
5x,6,7,3,2,1,6x,7,8,4,3,2,
8x-4[8:1],,8x,1x-3[8:1],,1x,7x-5[8:1],,7x,8x-4[8:1],,8x,
5x,,,5xs1[8:1]b/4x,,,,,,,,,
(300){12}2x/7,3x,4x,5x/1,4x,3x,2x/7,3x,4x,5x/1,4x,3x,
2x/7x,6x,5x,4x/8,5x,6x,7x/2,6x,5x,4x/8,5x,6x,
{48}7x/3bx,4x,5x,,,,,,2bx,3x,4x,,,,,,1bx,2x,3x,,,,,,
6bx,5x,4x,,,,,,7bx,6x,5x,,,,,,8bx,7x,6x,,,,,,
{12}1x,8x,1x,8x,1x,8x,2h[6:1],,3h[6:1],,4h[6:1],,
6,5,6,4b/7b,,,3,4,3,5b/2b,,,
7,8,7,1b/6b,,,2,1,2,8b/3b,,,
{16}8x,7x,1x,2x,8x,7x,1x,2x,6hx[32:1],5hx[32:1],3hx[32:1],4hx[32:1],6hx[32:1],5hx[32:1],3hx[32:1],4hx[32:1],
6,,5,,4,,3,,2/7,,,,,,,,
(75){8}7>3v5[16:3],,,,
(300){16}4,5,4,5,4,5,4,5,3,6,3,6,3,6,3,6,
{8}2,4,5,7,8h[4:1]/1h[4:1],,,,
4,5,3,5,2,,5,,
1>4[2:1]/5,,6,,7,,8,,
8h[4:3],,1,,1,,1,,
{12}1,2,3,4,5,6,7/2,3,4,5,6,7,
{8}2,1,2-5[8:1],1,,,7,8,
7-4[8:1],8,,,2,1,2,1,
2h[4:1],,7x,,{12}2,4,3,5,4,6,
3,5,4,6,5,7,2x,5,3,6x,4,7,
C,,,,,,2x/7x,,,,,,
{8}4/5,3/6,4/5,3/6,,,,,
E
