&title=物凄いスペースシャトルでこいしが物凄いうた
&artist=Halozy
&first=0.065
&des=flygon です
&lv_5=13
&inote_5=(175)
{4}
,,,{24}5x<4[2:9]/4x>5[2:9],E4/E6,B3/B6,,,,{4},,,,,,,,,,,,,,,,,,,,,,{48},
{24}
8x<1[2:3]/1x>8[2:3],E1,E2/E8,E3/E7,E4/E6,E5,{4},,,,,,,
{48},,,,Ch[8:3]/B2/B3/E3/B7/E7/B6,
{8}
,,,,,,,,,,,54,3,2,1,8,7,6,{16}5,4,{4}7h[4:1],8h[4:1],1h[4:1],2h[4:1],
{8}
5,6,7,8,1,2,3,4,{4}3h[4:1],2h[4:1],1h[4:1],{16},,8,1,
{8}
8-4[8:1],8,2-6[8:1],2,7-3[8:1],7,1-5[8:1],1,8-4[8:1],8,2-6[8:1],2,{4}7x<4[8:1],1x>4[8:1],{8}8-4[8:1],8,2-6[8:1],2,5-1[8:1],5,3-7[8:1],3,8-4[8:1],8,2-6[8:1],2,{4}5xw1[8:1],B5/Cf/B1,
{8}2bx/7bx,2,6,6,3,3,5,{16}5,4,{8}6b,6,2,2,7,7,1,{16}1,8,{8}2b,2,7,7,3,3,6,{16}6,5,{8}7bx,7,2,2,6,6,3,{16}3,4,{8}2bx,2,2x/3x,3,3x/4bx,4,4x/5x,5,5x/6bx,6,6x/7x,7,7x/8bx,8,8x/1x,1,{16}2bx,1,2,1,3x,8,3,8,4bx,7,4,7,5xw1[8:1],6,5,6,{4}5bx,,,Cf,
{8}27,8,27,1,27,8,27,{16}1,8,{4}1x-6[8:1],7x-4[8:1]/1x,5x-2[8:1]/7x,5x/3x,{8}36,4,36,5,36,4,36,5,{4}4x-7[8:1],2x-5[8:1]/4x,8xw4[8:1]/2x,8b,{8}6x/3x,1,63,8,63,1,45,36,27,4,27,5,2h[8:1]/7h[8:1],,3h[8:1]/6h[8:1],,45,4,36,3,{16}2,7,2,7,1,8,1,8,{8}1x,2x,3x,4x,{2}5xv8[8:1]*v2[8:1],B1,B4,Cf,,
{4}4h[2:1],,3h[2:1],,2h[2:1],,,{8}8,8,{4}8h[2:1],,{8}7,7h[4:1],,6,6h[2:1],,,,,,{8}7,8,1-3[4:1],,1,8-6[4:1],,8,{4}6-3[4:1],3-8[4:1],8-5[4:1],5-1[4:1],1w5[2:2],,,,,,,,{8}2,6,
{16}3hx[8:1],,5,4,6h[8:1],,3,4,2h[8:1],,6,5,7h[8:1],,4,5,3h[8:1],,5,4,6h[8:1],,3,4,2h[8:1],,,,{8}45,3-8[8:1]/6-1[8:1],,6x/3x,,81,7,7,3,3,8hx[8:1]/2hx[8:1],,5hx[8:1]/4hx[8:1],,7hx[8:1]/1hx[8:1],,8-4[8:1],1-5[8:1],8-6[8:1],1-3[8:1],8-4[8:1],1,8,,4,3x/6x,,2,8-4[8:1],2-6[8:1],8,2,5,4,3b/6b,{16}7,2,7,,{8}8b/1b,,2b/7b,,3b/6b,,{16}7,2,7,2,7,,1,2,3,4,5x/6x,,,,
7h[8:1],,1,8h[8:1],,2,1h[8:1],,{8}3,3,4,4,{16}7h[8:1],,5,6h[8:1],,4,5h[8:1],,{8}3,3,2,2,{16}7h[8:1],,1,8h[8:1],,2,1h[8:1],,{8}3,3,4,4,{16}7h[8:1],,5,6h[8:1],,4,5h[8:1],,{4}3pp5x[8:1]*qq1[8:1],3bx,{8}3/5,3,31,3,34,3,38,3,3/6,6,61,6,64,6,68,6,{32}1/6,2,3,4,5,6,7,8,1,2,3,4,5,6,7,8,1,2,3,4,5,6,7,8,1,2,3,4,5,6,7,8,{4}1bx/Cf,,,,
{8}3b/7b,{16}5,4,5,,2b/6b,,4,3,4,,{8}2-5[8:1],1,7b-4[8:1]/2b,,2b-5[8:1]/7b,,2b/7b,,,,{16}2b/7b,,6,5,6,,2b/7b,,3,4,3,,{8}8>3[8:1]*<5[8:1],1,{4}8bw4[8:1],8b>3[8:1]*<5[8:1],8bw4[8:1],8b,{16}2b/6b,,4,3,4,,{8}6-2[8:1],,6,4-8[8:1],4,5-1[8:1],5,3,,,6x/3x,,6x/3x,5bh[4:3]/4b,,3,,2,,1,8x,,7x/1x,6x/2x,5x/3x,4xp7[8:1]*q1[8:1],,Cf,,
{16}6b/2b,,5,4,5,,7b/3b,,6,5,6,,{8}7<4[8:1],8,2>5[8:1]/7b,,7b<4[8:1]/2b,,2b/7b,,,,{16}7b/2b,,6,5,6,,7b/2b,,3,4,3,,{8}1>4[8:1]*<6[8:1],8,1bw5[8:1],,1b>4[8:1]*<6[8:1],,1bw5[8:1],,1b,,{16}7b/3b,,6,5,6,,{8}3-7[8:1],,3,{8}5-1[8:1],5,4-8[8:1],4,6,,,7x/2x,,7x/2x,8bh[1:1]/1b,1,1,1,1,1,1,1,{32}1,2,3,4,5,6,7,8,1,2,3,4,5,6,7,8,1,2,3,4,5,6,7,8,1b/Cf,,,,,,,,
{8}3bx/6bx,3,7,7,2,2,8,{16}1,8,{8}2b,2,7,7,3,6,6,{16}5,6,{8}4b,4,5,5,3,3,6,{16}4,5,{8}3b,3,6,6,2,2,7,{16}8,7,{8}1b,1,12,2,2/3b,3,43,4,4/5b,5,56,6,6/7b,7,87,8,{16}1b,8,1,8,2,7,2,7,3b,6,3,6,4w8b[8:1],5,4,5,4bx,,,,{4},,Cf,
{8}7-4[8:1]/2,8,27,1,7-4[8:1]/2,8,27,{16}1,8,{4}1-6[8:1],7-4[8:1]/1,5-2[8:1]/7,53,{8}3-8[8:1]/6,4,36,5,3-8[8:1]/6,4,36,5,{4}4-7[8:1],2-5[8:1]/4,8w4[8:1],8b,{8}7-4[8:1]/2,8,2-5[8:1]/7,1,27,8,18,27,3-8[8:1]/6,4,6-1[8:1]/3,5,{4}3-8[8:1]/6,36,{8}45,4,36,3,{16}2,7,2,7,1,8,1,8,{8}1x,2x,3x,4x,{4}5x-1[8:1],1w5[8:1]*<1[1:5]*>1[1:5],1b/B1/Cf/B5,
