&title=Destructive Little Sister
&artist=Kobaryo
&first=0.64
&des=Liver
&lv_4=15
&inote_4=(247.5){8}
1b,,,,2,,,,3,,,,4,,,,5,,,,6,,,,7,,,,8,,,,8h[4:1]/1h[8:1],,1,,3h[4:1]/2h[8:1],,2,,2h[8:1]/4h[4:1],,3,,3h[4:1]/5h[8:1],,4,,4h[8:1]/7h[4:1],,5,,4h[8:1]/1h[4:1],,6,,2h[8:1]/6h[4:1],,7,,1h[4:1]/5h[8:1],,8,,
(247.5){8}
4b/5b-1[165#12:1],6,7,4-8[165#12:1]/5,3,2,4/5-1[165#12:1],6,7,4-8[165#12:1]/5,3,2,4/5,,1bx/8bx,,
8b/1b>4[165#12:1],2,3,8<5[165#12:1]/1,7,6,8/1>4[165#12:1],2,3,8<5[165#12:1]/1,7,6,1/8,,4bx/5bx,,
4b/5b-1[165#12:1],6,7,4-8[165#12:1]/5,3,2,4/5-1[165#12:1],,7b/2b,4-8[165#12:1]/5,3,2,4b/5b,6,7,,4b/8b,
48,48
,48,3b/7b,37,37,37,
(495){8}
3x,2,1,8,7x,6,5,4,8x,1,2,3,4x,5,6,7,8hx[2:3]/4hx[2:3]
,,,,,,,,,,,,,,,,
(247.5){8}
5xv8[8:1]b/8x>5[8:1]b,,8x-5[8:1]b/5x-3[8:1]b,,8x<6[16:1]-2[16:1]b/5x>2[8:1]b,,8x/5x,,
8,8,78,2,2,12,3,3,34,6,6,56,7bv1[8:1]b/3bv5[8:1]b,,73,,
8,8,12,3,3,45,6,6,7/8-3[8:1]b,,7/8-4[8:1]b,,1/8-5[8:1]b,,78,,
46,6,6,35,3,3,42,4,4,13,1,1,8bv5[8:1]b/4bv1[8:1]b,,84,,
72,8,8,25,3,3,58,6,6b>2[8:1]b,,6b<2[8:1]b,,6b-2[8:1]b,,6,,
18,18,8,23,23,2,45,45,5,67,67,6,8b<4[8:1]b/4b>8[8:1]b,,48,,
26,26,8,27,27,8,45,45,8h[4:1],,6h[4:1],,4h[4:1],,2h[4:1],,
13,13,13,24,24,24,35,35,35,46,46,46,4b<1[8:1]b/6b>1[8:1]b,,46,,
37,37,37,26,26,26,15,15,1x<5[8:1]/5x>1[8:1],,1x/5x,,1x<5[8:1]/5x>1[8:1],,1x/5x,,
(495){8}
4h[1:1]/5x,6,7,8,1,2,3,,,,,,4h[1:1]/3x,2,1,8,7,6,5,,,,,,5b/4b,,,,4b/3b,,,,
8h[1:1]/1x,2,3,4,5,6,7,,,,,,8h[2:1]/7x,6,5,4,3,,28,,6,,4,,38,,2,,16,,72,,
1h[1:1]/8x,7,6,5,4,3,2,,,,,,2h[1:1]/3x,4,5,6,7,8,1,,,,,,3b,,,,7b,,,,
(990){8}
56,,,,,,3x,,,,,56,,,,,8x,,,,,,56,,,,,2x,,,,,56,,,,1x,,,,56,,,,,,,,56,,,,56,,,,56,,,,56,,,,5h[1:4]/6h[1:4],,,,,,,,,,,,,,,,,,,,,,,,,,,,,,,,
(495){8}
,,,,,,,,,,,,,,,,B7/E7,,,,B3/E3,,,,B6/E6,,,,B2/E2,,,,C,,,,E1/E5,,E2/E6,,E3/E7,,E4/E8,,E1/E5,,,,E2,,B2,,B3,,E4,,E6,,B5,E5,B4,,E4,,E7,,E8,,E1,,E2,,E3,,,,,,,,
A7/E7,,,,A3/E3,,,,A2/E2,,,,A6/E6,,,,C,,,,A8/E8/A4/E4,,A1/E1/A5/E5,,A2/E2/A6/E6,,A3/E3/A7/E7,,A4/E4/A8/E8,,,,A2,,A5,,A4,,A7,,A1,,A6,,A3,,A8,,Ch[1:1],,,,,,,,
,,,,,,,,1-5[4:1],,1,,7-3[4:1],,7,,2-6[4:1],,2,,8-4[4:1],,8,,2,,,,71,,71,,71,,62,,53,,,,4-8[4:1],,4,,6-2[4:1],,6,,3-7[4:1],,3,,5-1[4:1],,5,,8b/2b,,73,,8b/2b,,64,,8b/2b,,,,C,,,,
6-2[4:1],,6,,8-4[4:1],,8,,5-1[4:1],,5,,7-3[4:1],,7,,1-5[4:1],,1,,4-8[4:1],,4,,2-6[4:1],,2,,3-7[4:1],,3,,
4x,3,2,1,8,7,6,5,4x,5,6,7,8,1,2,3,4/8,,,,,,6b/2b,,,,4b/8b,,,,,,
8h[4:1],,4h[4:1],,7h[4:1],,3h[4:1],,6h[4:1],,2h[4:1],,5h[4:1],,1h[4:1],,
,,,,8h[4:1]/2h[4:1],,7h[4:1]/3h[4:1],,6h[4:1]/4h[4:1],,5w1[4:1],,,,,,
6,,5,,2,,1,,5,,4,,1,,8,,73,,48,,15,,26,,3h[4:1]/7h[4:1],,,,C,,,,
7,,7v5[4:1],,2,,2v4[4:1],,8,,8v6[4:1],,1,,1v3[4:1],,7,,5,,5v7[4:1],,4,,4v2[4:1],,6,,6,,,,3,4,3,4,3b
,4,3,4,2,5,2,5,2b,5,2
,5,1h[1:2]/6h[1:2],,,,,,,,,,,,,,,,,,E1,,E2,,E3,,E4,,E5,,E6,,E7,,E8,,B1,,B2,,B3,,B4,,B5,,B6,,B7,,B8,,,,1x,2,3,4,8x,1,2,3,7x,6,5,4,8x,7,6,5,1x,2,3,4,5,6,7,8,1,2,3,,12,,2,,2,,2,,2,,2,,2,,2,,2/3,,3,,3,,3,,3,,3
,,3,,3,,34,,4,,4,,4,,4,,4,,4-1[4:1]-6[4:1]-3[4:1]-8[4:1]-5[4:1]-2[4:1]-7[4:1]-4[4:1],,4,,,,,,,,,,,,,,,,,,2b,1,8h[4:1],,7b,6,5h[4:1],,4b,3,2h[4:1],,1b,8,7h[4:1],,6b,5,4h[4:1],,3b,2,1h[4:1],,8b,7,6h[4:1],,C,,,,4b,5,6h[4:1],,7b,8,1h[4:1],,2b,3,4h[4:1],,5b,6,7h[4:1],,6b,5,4h[4:1],,3b,2,1h[4:1],,C,,,,,,,,6,5,6,,3,4,3,,6,5,6,,3,4,3,,1,2,1,,8,7,8,,6,5,6,,3,4,3,,5,4,5,,3,6,3,,7,2,7,,1,8,1,,2b/7b,,,,3b/6b,,,,4b/5b,,,,,,,,6,5,6,5,,,1b-7[990#4:1],,,,,,6,5,6,5,,,3b-7[990#4:1],,,,,,6,5,6,5,8b-5[990#4:1],,,,3,4,3,4,,,7b-2[990#4:1],,,,,,1,2,1,2,,,6b-1[990#4:1],,,,,,3,4,,,17,,,,17,,,,1/7,,17,,3,5,3,5,,,8b>3[990#4:1],,,,,,8,2,8,2,,,5b<8[990#4:1],,,,,,5,4,5,4,6,3,6,3,1b-5[990#4:1],,,,,,7,3,7,3,,,5b-1[990#4:1],,,,,,,,35,35,4b,,,,,,,,
5x,6,7,8,,7x,6,5,4,,
(990){8}
1bx,2,3b,4,5b,6,7b,8,1b,2,3b,4,5b,6,7b,8,1b,2,3b,4,5b,6,7b,8,1b,2,3b,4,5b,6,7b,8
,1h[1:4]/5h[1:4],,,,E5,,,,B5,,,,E6,,,,E5,,,,
B5,,,,E6,,,,E5,,,,B5,,,,E6,,,,E5,,,,B5,,,,E6,,,,E5,,,,B5,,,,E6,,,,
(495){8}
3h[1:2]/7h[1:2],,E3,,B3,,E4,,E3,,B3,,E4,,E3,,B3,,E4,,E3,,B3,,E4,,E3,,B3,,E4,,
1<7[247.5#16:1],2,1,2,1,,4<6[247.5#16:1],3,4,3,4,,,,,,,,2-6[247.5#16:1],3,2,3,2,,4-8[247.5#16:1],1,4,1,4,,,,
6,,3,,1,,4,,7,,2,,8,,5,,6,6,3,3,1,1,4,4,7,7,2,2,8,8,5,5,
2x<3[4:8],,2x,,2x,,2x,,2x,,2x,,,,3x,,3x<2[4:4],,3x,,3x,,,,2x<3[4:4],,2x,,2x,,2x,,3x<2[4:3],,3x,,3x,,2x<3[4:3],,,,,,3x<2[4:2],,,,2x<3[4:4],,2x,,2x,,2x,,3x<2[4:4],,3x,,3x,,3x,,2x<3[4:8],,2x,,2x,,2x,,2x,,2x,,,,3x,,3x<2[4:4],,3x,,3x,,,,2x<3[4:4],,2x,,2x,,2x,,3x<2[4:8],,3x,,3x,,3x,,3x,,,,2x,,2x,,2bx<3[4:5],,,,,,2bx,,,,,,2bx,,,,
1/8,,,,8,,,,1/2,,,,1,,,,2/3,,,,2,,1,,3/4,,,,3,,,,4/5,,3,,2,,1,,5/6,,4,,3,,2,,6/7,,1,,5,,2,,7h[2:1]/8h[2:1],,,,,,,,
2/3,,,,1,,,,1/4,,,,3,,,,8/5,,,,2,,5,,6/7,,,,7,,,,8/5,,1,,8,,7,,1/4,,6,,5,,4,,2h[4:4]/3h[4:4],,,,,,,,,,,,,,,,
5x-8[247.5#8:1]/6x-3[247.5#8:1],,,,5/6,,,,1-4[247.5#8:1]/2-7[247.5#8:1],,,,1/2,,,,5/6,,,,5/6,,4/7,,8/3,,1/2,,1x/2x,,,,7x/8x,,3,,2,,1,,7/8,,4,,5,,6,,8x/4x,,73,,2x/6x,,15,,8x/4x,,,,8x/4x,,,,8x/4x,,4,,4,,4,,4,,4,,4,,4,,4x/7x,,4,,4,,4,,6x/4x,,4,,5x/4x,,,,
3x,6,3x,6,1bx,6,3x,6,3x,6,3x,6,5bx,6,3x,6,3x,6x,3x,6x,3x,6x,3x,6x,3x,6x,3x,6x,3x,6x,3x,6x,,,,,,,,,,,,,,,,,
(990){8}
4b/5b,,,,,,,,6b/3b,4/5,,,,,,,2b/7b,6/3,4/5,,,,,,1b/8b,2/7,6/3,4/5,,,,,
(495){8}
64,,64,,35,,35,,64,,64,,35,,35,,24,,2,,28,,8,,68,,6,,46,,,,13,,13,,57,,57,,86,,86,,24,,24,,8-4[247.5#16:1],,1-5[247.5#16:1],,8-6[247.5#16:1],,1-3[247.5#16:1],,8-4[247.5#16:1],,1-5[247.5#16:1],,8,,1,,
78,,78,,64,,64,,78,,78,,64,,64,,31,,3,,37,,35,,3,,37,,3,,31,,
3,8,1,6,4,7,2,5,
(990){8}
3,8,1,6,4,7,2,5,3,8,1,6,4,7,2,5,
(495){8}
Ch[2:3],,,,,,A1/B1/D2/E2/A2/B2/E3/D3/B3/A3/E4/D4/B4/A4,,,,A8/B8/D8/E8/B7/A7/E7/D7/A6/B6/E6/D6/A5/B5,,,,,,
23,,23,,1,2,1,,23,,23,,4,3,4,,23,,23,,6,5,6,,23,,23,,7,8,7,,
2,3,2,3,1,4,1,4,6,7,6,7,5,8,5,8,
(990){8}
1/5bx,2,3,4,1bx/5,6,7,8,1/5bx,2,3,4,1bx/5,6,7,8,1/5bx,,,,,,,,E2/B1/E1/B8/E8/E7/B7/E6/B6/E5/B5/E4/B4/C,,,,,,,,
54,,,,54,,,,7,6,7,6,7,,,,54,,,,54,,,,2,3,2,3,2,,,,5,4,5,,,,,,1,8,1,8,1,,,,4,5,4,,,,,,8,1,8,1,8,,,,4,,5,,4,,5,,4,,5,,4,,5,,3,6,3,6,3,6,3,6,3,6,3,6,3,6,3,6,3xh[1:3]/6xh[1:3],,,,,,,,,,,,,,,,,,,,,,,,,,,,,,,,
(495){8}
63,,5,,63,,4,,63,,1,8,1,,63,,,,8b-2[123.75#16:1]*>2[123.75#16:1]/4b-6[123.75#16:1]*<6[123.75#16:1],,,,2bq6[165#12:1]*>6[165#12:1]/6bq2[165#12:1]*<2[165#12:1],,,
