&title=刃濤舞う
&artist=Cheri*
&first=1.05
&des=七叶一華-橙-
&des_5=
&lv_5=14+
&inote_5=(160){8}1$,2h,3$,4h,{4}5$,{8}1$,8h,
7$,6h,{4}5$,{8}1$,2h,3$,4h,
{4}5<1[4:1],{8}1,2,3,4,5-3-1[4:1],3,
1-7-5[4:1],7,5>8[3:1],1,8,7,{4}6-4[8:1],
{8}6/8$,1h,2$,3h,{4}4-6[8:1],{8}4/2,1,
8,7,{4}6-4[8:1],{8}6/4,3,2,1,
8b/7,6,5/4,3b,2/1,8-4[16:1],6/5,8,
,2>6[8:1],1,8,{24}A1,A2,A3,A4,A5,A6,{4}A7/A8f,
{8}6/2-5-3[8:1],1,8-4[16:1],7,{4}2/8>4[8:1],{8}8/5,6,
7-3[16:1],8,7/1-7[16:1],2,1/3-1[16:1],4,3/5,6,
1,{16}1,2,{8}3h[8:1],4,{16}4,5,{8}6h[8:1],1,{16}1,8,
{8}7h[8:1],5b-8[16:1]*-2[16:1],,5,{4}1w5[16:1],1,
{8}3/7-4[16:1],8,1-5[16:1],2,{4}7/1-7-5[8:1],{8}1/4,3,
2q6[16:1],1,2/8-3[16:1],7,8/6-1[16:1],5,6/4,3,
8/2h[8:3]`B8`C`B4`A4,,,5`B5`C`B1`A1,,,2,{16}2,3,
{8}4h[4:1],{16}8>4[4:1],7,{8}6,{16}8/4,5,6,7,8,1,2,3,4,5h[16:3],
{8}1b,2h[4:1],4,6h[8:1],{4}5-2[16:1],{8}1,1h[4:1],
4,5h[8:1],{4}6-8-4[8:1],{8}4,3h[4:1],2,8h[8:1],
{4}1pp4[2:1],1/5h[8:1],{8}4>8[4:1],4,8-4[8:1],7-4-1[4:1],
,7,,5>1[4:1],5,{16}5/1,8,7,6,5,4,
{8}3bh[4:1],2,1h[8:1],5h[8:1],{4}8-4[16:1],{8}7,6h[4:1],
3,2h[8:1],{4}7-5-1[8:1],{8}2,4h[4:1],8,7h[2:1],
{16}3h[8:3],,,,,,,8/4,{8}5/1-5[16:1],,,4q6[2:1],
3,2,1,8>5[4:1],,8,{16}5,6,7,8,
{8}1b,{16}3,5,{8}4,{16}6,8,{4}7-5[16:1],{8}7/1,{16}2,4,
{8}3,{16}6,5,{4}7-5[16:1],{8}1,{16}3,4,{8}3-5[16:1],5,
{4}3/6-2[16:1],6/2z6[4:1],{8}2x<4[8:3],6x,2x,4x-8[4:1],
,8x-2[8:1],{4}2x-6-4[4:1],{8}3hx[4:1],,,1/2,
{16}3-5-2[8:1],,,5,{8}3,8,{16}1-7-2[8:1],,,7,{8}1,5,
{16}4-2-5[8:1],,,6,{8}4,6,8-2[16:1],7-3[16:1],8w4[4:1],7,
8,,,3,3>6[8:3],,,3,
3>6b[16:5],,,4,{12}3x,2x,1/5x,4x,3x,2x,
{6}8x/3x>8[4:1],7,6,5>2[4:1],1,8,
{3}7p4[2:1],{12}1,2,{2}3h[2:1],
{6}1>5[4:1],8,7>3[4:1],6,5,4,
{3}3p8[2:1],{12}7,6,{2}5h[2:1],
{6}1>4[4:1],8,7>2[4:1],6,5<8[4:1],4,
3<6[4:1],2,1-3-5[4:1],8h[3:1],,,{2}7h[8:3]/A5`B5`Cf`B1`A1,
{16}1/8x,,,2x/4,,,{8}7x/5w1[8:1],
{2}A7`B7`Cf`B3`A3,{16}2`B2,,,8`B8,,,{8}1`B1,
{16}7,8,6,1,5,2,1,3,8,4,6,5,{8}1,7/8,
{16}6bx-2[16:1],,,5x/4b,,,{8}1bx-5[16:1],{16}7b/8x,,,6<3[4:1],,,{8}3x/Ch[16:5],
{24},,,,,,4x,5x,6x,7x,8x,1x,{4}2x/6h[4:1],{8}3qq5[16:5],2,
3/7-4[16:1],8,7>2b[16:1],3x/6x,{4}7-3[16:1],{8}7/8-4[16:1],1-3[16:1],
8,1pp6[8:3],5-8[16:1],1,{4}5,{8}8p4[16:1],7,
{4}8/3pp2[4:1],2<6[4:1],6>2[4:1],{8}2>6b[4:1],1,
8,7pp4[4:1],8,7/Cf,4,{16},,,,2,4-8[16:1],
3,,,4/7p5[4:1],,,{8}1-5[16:1],2,A1f,{16},,7/4,5<8[16:1],
6,,,3/5pp4[4:1],,,{8}3-1[16:1],1,A3f,{16},,8,7,
1b/6x,,,8b/2x,,,{8}1x/3b,{16}2x/4b,,,4x/5b,,,{8}5x/7b,
{16}2b/8x-4[16:1],,,1h[16:3],,,,,{4}5/2h[4:1],{8}6pp4[16:5],8,
6/2v5[16:1],1,2,6x/3x-1[16:1],7-5[16:1],{16}1/3-7[16:1],8,{8}7-1[16:1],3,
4-2[16:1],5,4/1-5[16:1],8,1/7-5[16:1],{16}1,8,{8}7-3[16:1],4,
{4}7>3[4:1],7/3<7[4:1],7<3b[4:1],{8}3,2,
1pp5[8:3],8,1/7-3[16:1],5<4b[4:1],7,,,5,
1/7<1[8:3],{16}8,8,,,{8}1w5b[8:1],,A1f,,3,
7/2>8[8:3],{16}1,1,,,{8}8w4b[8:1],,A8f,,3x/6x,
{16}1h[8:1]/2-5[8:1],,,2,{8}1,6,{16}8h[8:1]/7-4[8:1],,,7,{8}8,3,
{16}1b/7-3[0.2812##0.1875],,,7b/2>8[0.2812##0.75],,,{8}2b/6h[8:5],,,,,3xh[4:1],
4,5,6,3h[4:1],5,6,7,
3h[4:1],6,7,8,1,2,3,4,
6h[4:1],5,4,3,6h[4:1],4,3,2,
{4}Chf[2:1],7bh[1:3],{32},,,,,,,,,,,,,,,,E2/B1/B2,
E3,E4,E5,,,,,,,,,,,,,E8/B8/B7,E7,E6,E5,,,,,,,,,,,,,,,,,,,{16}B5/B4/E5,
,B7/E7/B6,,E1/B8/B1,,,E3/B2/B3,,,C,,,
{2}3xh[4:1],6h[4:1]/2h[4:1],
{6}1x-6[6:1],2x,3x-8[6:1],4x,5x-2[48:7],6x,
{8}8,1/7,{16}8,8,{8}8,7/1,{16}8,8,{8}8,6,
5/3,{16}4,4,{8}4,2,{4}1w5[8:1],1,
{8}3,4/6,{16}5,5,{8}5,6/4,{16}5,5,{8}5,6,
{4}7,/8bz4[4:3]*z4[4:3],,,{2}4>8[2:1],
8s4[2:1]*s4[2:1],
4V61-5b[8:5],3h[8:3],
{16}7x/3h[16:3],,,6h[16:3],,,4h[16:5],,1x,,,8,,,7,,6,
3,6,3,6,3,6,3,{24}7x,2x,7x,2x,7x,2x,7x,2x,7x,2x,{12}7x,
{24}3b,4,5,6,7,8,1,2,3,4/8,7,6,5,4,3,2,1,8,7/4,5,6,7,8,1,
{16}4xb,3,4,2,4,1,4,8,3,8,2,8,1,8,7,8,
{24}6b,5,4,3,2,1,8,7,6,1/5,2,3,4,5,6,7,8,1,2/5,4,3,2,1,8,
{16}5bx,6,5,7,5,8,5,1,5,1,6,1,7,1,8,1,
{24}2b,3,4,5,6,7,8,1,2,3/7,6,5,4,3,2,1,8,7,6/3,4,5,6,7,8,
{16}4bx,3,2,14,3,2,1,83,2,1,8,72,1,8,7,61,
{4}5h[4:4],6h[2:1],{16},,,,,,,,7,
4,7,4,7,3,7,2,{48}3bx,D4,4bx,D5,5bx,D6,6bx,D7,7bx,D8,8xb,D1/E1,1bx,D2/E2,2bx,D3/E3,3bx,D4/E4,{48}4bx,D5/E5,5bx,D6/E6,6bx,,{8}8hb[4:3],
{16},,,,3,4,{8}5h[8:3],{16},,,,8,7h,
4/6h,3,2h,8/1h,7,6h,3/5h,2,1h,6h/8,5,4,7h/3<3b[3:1],8,1,6/2,
{2}5h[4:1]/3,{4}3h[4:1],{8}4,4,
8/7h[8:1],{16}2,3,{8}4h[8:1]/8,{16}7,6,{8}5h[8:1]/1,{16}2,3,{8}4h[8:1]/8<8[16:5],{16}2,1,
{8}8/3bh[2:1],{16},,,,7,6,{2}5h[8:3],
{16}8h[8:1]/7-4[8:1],,,8,{8}7,1,{16}1h[8:1]/2-5[8:1],,,1,{8}2,8,
{16}6b/B2,,,3b/C,,,7b/1b,1b/7b,2b/8b,,,6b/5b,,,3bh[8:1]/5b,6b,
7b/B3,,,2b/C,{16},,5b-1[24:7]/1b,,,,,,,,,,{2}5p4[2:3]*<6<7>8>1>2>3<4b[2:3],{2}(160)
,
,,
6p4[2:1],4>6[2:1],
6z2[2:1],4,
{4}3<6[2:1],E8/B7,{2}E2/B2,
{4}2>6[2:1],E8/B7,{2}E2/B2,
{16}3b/C,,,6b/C,,,{16}2b/8b,2b/8b,7bx/3bx,,,3b/4b,,,6b/5b,5b/6b,7bxh[2:1]/4bx
,,,1b,,,{32}1bx,2x,3x,4x,5x,6x,7x,8x,1hx[4:1],,{16},{8}7pp4b[4:1],8,
{16}7/2xv5[16:1],3,{8}4,2>6[16:1],{16}1x,8,{8}2/7-3[16:1],{16}7x,8,{8}7/1,2h[8:1],
{16}1-5[16:1],8,7,6,{8}1/5<1[8:1],3x/4x,{4}5bp4[8:1],{8}2,1,
{16}7h[8:1],8-4[16:1],1,2,{8}8/3-7b[16:1],2,{4}1/3b<6[16:1],{8}3/8>3[16:1],7,
6/8-4[16:1],1,8/4<8[16:1],3,2/4bqq5[4:1],{16},,,,1,8-4[16:1],
7h[16:3],,,8,,,{8}6h[8:1]/Cf,{16}2x,8x,5x,6x,{8}1x-5[16:1],{16}8,2,
1,,,4,,,{8}6h[8:1]/Cf,{16}1b,7b,3b,4b,{8}8b-4[16:1],{16}1,2q6[16:1],
3x/8b,,,5x/2b,,,{8}7x/8b,{16}3x/1b-5[16:1],,,2x/4b,,,{8}8bx,
{16}4x/7bp3[16:1],,,8b/1x,,,{8}2bx<7[16:1],{4}2x/7b,{8}6-4[16:1],7,
{16}6/1-3[16:1],2,{8}3,1/5x<8[16:1],{16}4,3,{4}5p3[4:1],{8}5/1,8,
{16}7h[8:1],8,1,2,3-7b[16:1],5,2,4,{4}3b>8[16:1],{8}3/6-4[16:1],5,
2/6v1[16:1],{16}3,3,{8}6,{16}4,4,{8}6<4[8:3],{16}5,5,{4}6h[8:1],
{8}5p1[16:1],6,5/7-3[16:1],8,{16}A7f/3pp3qq3[1:1],,,,,,8,,7,,6,6,,,5p3[2:1],,,,,,,,A8,,1,,,2,2,,3/E5,E6,E7,E8,4/E1,E2,E3,8-4[16:1]/E4,E5,,1h[16:3],,,,3p7[16:1],,45,,6-2[16:1],,,1,1-4[16:1]/6,,8,,1x/6b,,,2x/5b,,,{64}4bx>5[2:1]/1x,E1,B8,B7,E7f,,,,{16},,4b,,7,,Cf,,4,,3p8[16:4],3,5,,3/7-4[16:1],,6,,7,,1h[8:1],4,5-1[16:1],6,7,,5-3[16:1]/8-6[16:1],,,,5/8,,2,5,2,,4v7[16:1],3,3,,4/6,,5>3[16:1],8,5,,1-6[16:1]/5,,8,,1,,3bx,2,1,8,7,6,4h,5,3h,4,2h,7,1h,5,4h,8,2h,4,3h,7,1bh[8:1],,7pp4[4:
1],3,5h[8:1],,7,,6,,5-7[16:1],,4x,3,2/5-1[16:1],1,8h[8:1],,5-3-7[6:1],,,,8x/5b,,6,5,4,,1-5[16:1],2,3,,1b/8,,,8p4[16:1],,,1/2-6[16:1],,3b,,,5-1[16:1],,,7/8,,{64}3bx,E4,B4,B5,{16},,{64}8bx,E1,B1,B2,{16},,(80){128}4x/6xpp4<1[16:15]*pp4<1[16:15],A6/A4,B6/B4,Cf,B1,A1,,,(160){16},,,,,,,,3qq5<4b[16:44],,,,,,,,,,,,,,,,,,,,,,,,,,,,,,,,5$,,,,,,,,6$,,,,,,,,7$,,,,,,,,
(80){32}8qq6qq4<8[16:14],(160){16},,,,,,,4qq2qq8>8[1:2]*qq2qq8>8[1:2],,,,,,,,,,,,,,,,,,,,,,,,,,,,,,,,8-2-4-6-8[16:20],,,,,,,,,,,,,,,,,,,,,,,,(80){32}5<4[16:6],,,,,,,,Ch[16:7],,,,,,,,,,,,,,,,E5,E6/E4,E7/E3,
E
