&title=Axeria
&artist=AcuticNotes
&first=0
&des=Another "J"
&lv_6=14+
&inote_6=(193){1},
(96.5)
{16}1>4[16:1],7<4[16:1],2-6[16:5],8-4[4:1],{4},,{16}5,4,6/3,,6,5,7,3,4,2,8,,2,4,3,7,
5,6,1,1,8<5[16:1],2>5[16:1],7-3[16:5],1-5[4:1],{4},,{16}4,5,6/3,,1,5,2,6,3,7,4,8,,
6/2,7/3,8-4[16:1]/4,,6/2,,8,1<6[16:1],,7/2h[8:1],,1,2,3,5-1[16:1]/4,,6h[8:1]/3,,5,7,
8,1,2,7-3[16:1]/3h[8:1],,5h[8:1],,7,6,7,8/4-1[16:1],,6h[8:1]/2,,4,5,6,7,8,
8>3[16:1]/1,,2/7h[8:1],,8,7,6,4-8[16:1]/5,,3h[8:1]/6,,4,2,1,8,7,6/2,,8/4,,7-3[16:1],
8,1,2-5[16:1],7,1-6[16:1],8,2,,1,,,7-2[16:1]/3-6[16:1],,5/1,6/2,7/3,,,8b,6/2-6[16:1],
3,4,5,6/2,7,8,1,2-5[16:1],8/1,7-4[16:1],8/1,2,1,7,8,5/1-5[16:1],2,3,4,5-1[16:1]/1,6,
7,8,5>2[16:1]/1<6[16:1],2,3-7[16:1],4,5/1,,,,6-3[16:1],5,4,3,6/2-7[16:1],1,8,7,
6-3[16:1]/2,6,5-8[16:1],5,6,1,5,2,3-7[16:1],4,5,6,7,8<5[16:1],1,8,7/2,
{48}8/1-5[16:1],2,3,{16}4-8[16:1],6/3h[8:1],,1,4,,3/7-3[16:1],6,5,4,3/7,2,1,8,
7-4[16:1],1/8,2-5[16:1],1/8,7,8,2,1,4/8-4[16:1],7,6,5,4-8[16:1]/8,3,2,1,
4<7[16:1]/8>3[16:1],7,6-2[16:1],5,4/8,,,,3-6[16:1],4,5,6,3/7-2[16:1],8,1,2,
3-6[16:1]/7,3,4-1[16:1],4,3,8,4,7,6-2[16:1],5,4,3,2,1,8,7,6/2>5[16:1],{32}1<6[16:1],
8,1,8,1,8,{16}2-6[16:1],1,,8/4,6-1[16:1]/2,,7/4,,6/5,4-8[16:1],3,2-5[16:1],,4/3,,1/2,
7>2[16:1],6,5,4,7<4[16:1]/3,,8/4,,7/8,1-5[16:1],2,3-8[16:1],,1/2,,4/3,6-3[16:1],7,
8/5,,6/2-7[16:1],,8/4,,2/3,4-8[16:1],5,6<1[16:1],,5/4,,6/1,2-5[16:1],3,4,5,
6-2[16:1]/2,,8/4,,6/2,1-5[16:1],7,8-4[16:1],,1/2,,7/8,6,6/2,,8/4,7h[16:1]/3-8[16:1],
8h[16:1],1h[16:1],2,3/4,5-1[16:1],6,7-4[16:1],,5/6,,7/8,2<7[16:1],3,4,5,2>5[16:1]/6,,
1/5,,2/1,8-4[16:1],7,6-1[16:1],,8/7,,6/5,3-6[16:1],2,1/4,,3/7-2[16:1],,1/5,,7/6,
5-1[16:1],4,3>8[16:1],,4/5,,8/3,7-4[16:1],6,5,4,3-7[16:1]/7,,1/5,,3/7,8-4[16:1],2,
1-5[16:1],,8/7,,2/1,{24}3,3,3,7,7,7,{16}2-6[16:1],1-5[16:1],8-4[16:1],7-3[16:1],,,,,,
4,5,6,7/8,1,2,3,6h[16:3],5,4,3h[16:3],4,5,6,7/5,8h[16:1],4h[16:1],7h[16:1],3h[16:1],
6h[16:1],2h[16:1],5h[16:1],1h[16:1],8-5[16:1],4-1[16:1],5<8[16:1],1>4[16:1],,,,,
6h[16:1],5h[16:1],7h[16:1],4h[16:1],8h[16:1],3h[16:1],1h[16:1],2h[16:1],{4}8-4[8:1],
2-6[8:1],5h[4:1],{48}7b,8,1,2,3,4,7-3[16:1]/5,8,1,2,3,4,{16}5/1,,7/3,2-7[16:1],,4,
5-8[16:1]/3,6/2,,6/4,5/3-6[16:1],,1,8/2,7/3-7[16:1],,8/1,,4/3,5-1[16:1],,7,
6/2-5[16:1],5/1,,7/8,6-1[16:1]/2,,4,5/3,6/2-6[16:1],,4/8,,2/6,7-2[16:1],,5,
4-1[16:1]/6,3/7,,3/5,4/6-3[16:1],,8,1/7,2/6-2[16:1],,1/8,,5/6,4-8[16:1],,1<6[16:1],
7/3,4/2>5[16:1],,1-5[16:1],,2-6[16:1],,1-4[16:1],,7-3[16:1]/2,8,1-5[16:1],,
7<4[16:1]/8,,8/1>4[16:1],,8/7,,8-4[16:1]/1,,{32}7/3,6/2,{16}5/1,8,6b,,5/3,2,6/4,7,
{32}1-5[8:1],2,3,4,5,6,7,8,{16}1h[4:1],,,,8-4[16:1],7/2,6/3,5/4,8,,
6-3[16:1]/2-7[16:1],,8/4,7/3,6/2,,8<5[16:1]/4>1[16:1],5/1,6/2-6[16:1],7/3,
{4}8-4[2:1]/4,8h[4:3],,,{32},,1,8,{16}1,7<4[8:1]/2,3,4>1[8:1],6,7,,8,,4<7[8:1],3,
7>2[8:1],8,4-8[16:1],,8,,4,,1/3,2,3<6[16:1],4,,,{48}7-3[16:1],8,1,{16}2,5/4,,7/8,1,2,
3,4,5,6,7,8-5[8:1],,4,3,2,1-4[8:1],,,,6-2[16:1],7,,5,6/4,,,,1/2,8>3[16:1]/1,7/8,
6/7<4[16:1],,8-4[16:1],,7-3[16:1],,8-5[16:1],,2-6[16:1]/7,1,8-4[16:1],,2>5[16:1]/1,,
1/8<5[16:1],,1/2,,1-5[16:1]/8,,{32}2/6,3/7,{16}4/8,1,3b,,1-4[16:1],5-8[16:1],
3-6[16:1],7-2[16:1],1,5,3,7,{32}5,4,3,2,1/8,7,6,5,8,4,1,5,2,6,3,7,4,5,3,6,2,7,1,8,2,
7,3,6,1,5,2,6,3h,7h,2h,6h,1h,5h,8h,4h,7-3[8:1]/3h,8h/4h,1-6[16:19]/5h,6h/2h,7h/3h,
8h/4h,1-4[16:17]/5h,6h/2h,
E
