&title=夢/あるいは在りし日の
&artist=Nego_tiator
&first=0
&des=おにねこ
&wholebpm=175
&des_4=もふもふウサギ
&des_5=おにねこ
&lv_4=12
&lv_5=13+
&inote_4=(175){1},,
{2}
1,2h[2:3]/4^7[2:1],,,
7,6h[2:3]/5^2[2:1],,,
3,5^8[2:1]/4h[2:3],,,
5,6h[2:3]/4^1[2:1],,,
4,1/8h[2:1],7h[2:1],6h[2:1],
5,34,5-1[2:1],,
4,6h[2:1]/3h[2:1],{4},2,2,3,
{4}4,3,
5h[4:1],3h[4:1],7h[4:1],1,
45,3s7[8:3]/6z2[8:3],,,
45,45,{8},6,6,,3,3,1,2,8,1,7,8,,,
2,4,4,3,,6,4,6V48[8:3],,3h[8:3],,,,,,,
{8}2h[8:3],,,1h[8:3],,,3h[8:3],,,5h[8:3],,,4,,
57,57,,6,,3,4,2,,6,7,8h[4:1],,1,2,3,
{4}45,45,{8},37,3qq8[4:3]/7qq3[4:3],,
{4},,,,
54,54,{8},62,6pp1[4:3]/2pp6[4:3],,
{4},,,,
34,24,56,57,45,36,27,18,
{8}5b/6b,,,3b/4b,,,18,2b/7b,,
{4}2b<5[2:1]/7b>4[2:1],,,{8},
2,,12,,3,3,24,,3,4,2,
2h[4:1],,1,38,,
7,,78,,6,6,75,,6,5,7,
7h[4:1],,8,6p4[2:1]/1q3[2:1],,
{4}
,,,,{8}4h[4:1]/5h[4:1],,,
5h[4:1]/6h[4:1],,,3q5[2:1]/8p6[2:1],,
{4}
,,,,{8}4h[4:1]/5h[4:1],,,
3h[4:1]/4h[4:1],,,8h[4:1],,
{8}
3h[4:1],,1,2,8,1,7,,
56,56,,18,18,,3,,
6h[4:1],,5,,7,8,1h[4:1],,
7,7h[4:1],,5h[4:1],,6,5,7-2[4:1],
,,,,,3,4-8[4:1],2,
,,{4}1h[4:1],2h[4:1],3,
46,35,47,25,
{8}
1,1,7,7,5,5,6,6,
4h[4:1]/7h[4:1],,,47,,,
{4}5qq2[4:3]/6h[1:1],,,,
{8},,1h[4:1]/7h[4:1],,,2h[4:1]/6h[4:1],,,
{4}3h[4:1]/5h[4:1],,{8}7,4,6,3,4,3,
5h[4:1]/2h[4:1],,,52,,,
{4}4pp7[4:3]/3h[1:1],,,,
{8},,8/2h[8:3],8,7,6h[2:1],,2,
3,4h[2:1],,7,6,5,4,3,2,1b<1[8:7]/8b>8[8:7],,,,,
{1},
{8}
4,5,3,2b/6bV41[8:3],,,,,,2,3,4-8[4:1],,,,,
5,4,6,7/3V58[8:3],,,,,,7h[4:1],,5V38[8:3],,7-4[8:1],,,,
,1,1-4[4:1],,,7,7h[4:1],,5pp8[2:1]*qq2[2:1],,
,,,,,,,8,8-4[4:1],,2,2,2h[4:1],,7,6,5h[4:1],,
4,5,3,6,5,6,
47,,,12,,2,1,8/3h[4:1],,4,3,52,2h[4:1],,1,83,,
5/2,,78,,7,8,1/6h[4:1],,5,6,47,7h[4:1],,8,16,
5-8[4:1],,,3,3h[4:1],,4,4,4w8[4:1],,,,,,
5,6,7h[4:1],,1,2,3,4,5,5,2h[4:1],,
8,7,6,5,4,3,2v5[4:1]/7v4[4:1],,,,,,
4,3,2h[4:1],,8,7,6,4,3,2,1-5[4:1],,,
6,6,,6,5,7h[8:3],,,{4}8h[4:1],1h[4:1],2-5[8:1],
6-1[8:1],2-5[8:1],6-1[8:1],3^6[8:1],
7^2[8:1],3^6[8:1],7^2[8:1],3,
{8}
4,4,5,5,3,3,6,6,
{16}
1,8,1,8,1,8,1,8,1,8,1,8,1,8,1,8,
{1}1b-5[4:7],,,
{4}2,1,8,7,3q5[4:3]/6h[8:3],,
,,,,,,4/5p4[4:5],,,,,,,,
{64}3,6,{32},,,{8},{4},,,
{1},,,,,E
&inote_5=(175){1},,
{8}
1h[8:7],,,,3,4,5,6h[8:2],,5,6/5-1[8:4],,,,,,
7h[8:7],,,,6,5,4,3h[8:2],,4,3/4-8[8:4],,,,,,
2h[8:7],,,,4,5,6,7h[8:2],,6,7/6-2[8:4],,,,,,
8h[8:7],,,,5,4,3,2h[8:2],,3,2/3s7[8:5],,,,,,
1h[8:4],,,,7h[8:4],,,8,2h[8:4],,,8,6h[8:4],,,8,
3h[8:4],,,8,5h[8:4],,,8,4w8[8:4],,,,,,,,
6h[8:4],,,,4qq7[8:11],,,,,,,,8,,1,,2,,3,,
4z8[8:12]/5s1[8:12],,,,,,,,,,,,,,,,
5h[8:3],,3h[8:4],,,4,5,6,
4h[8:7],,6,7,,7,8,1,
4>5[8:10],,6,5,,5,4,,4,3,,2h[8:7],,,4,,,,
8h[8:3],,,6h[8:3],,,4h[8:3],,,2h[8:3],,,8h[8:3],,
4,4V25[8:4],,6,,7,7,8-4[8:2],,3,3,2h[8:4],,3,4,5,
1h[8:7]/6<4[16:9],,,,,,,,5b/1bs5[8:4],,,6,,,7,,
8<1[16:9]/4h[8:7],,,,,,,,8b/4bz8[8:4],,7,7,,6,6,,
5h[8:7]/4,,3,2,,1,2,3h[8:4],,4,5,6h[8:4],5,4,3,2,
1b/8b,7,8,6b/1b,,2,1,8b/3b,,1b/2b,83,47,56,47,
{32}83,7,6,5,4,3,2,1,
{16}
8bp4[16:2]/4b,,,,4pp6[16:3],3,2,,,,1,,2h[8:2],,,,
1-5[8:1],,8,,71,,6pp1[8:3],,,,4,,4,,3,,
2>5[16:2],,,,5qq4[16:4],6,7,,,,8,,7h[8:2],,,,
8-4[8:1],,1,,82,,3qq7[8:3],,,,4,,4,,5,,
{8}
6bpp5[16:6],,4,3,2pp1[16:6],,,8,7,6<2[16:3],,4pp6[16:4]*qq2[16:4],4,,,,
8<3[16:5],,3,2,1q5[16:4],,,6,7,8p2[16:4],,1,1h[8:2],,5h[32:19],,
{16}
8-4[8:1],,,,8b,,6,7,8,1,2,3,4,,26,,7-1[8:1]/1,,2-5[8:1],,7,,2,,8-4[8:1],,7,,86,,,,
5/3-1[8:1],,7-4[8:1],,3,,7,,1,,2-5[8:1],,8,,25,,6-8[8:1],,1-5[8:1],,6,,1,,7,,6,,54,,3h[16:1],4
,3,,2,,18,,7h[8:2],,,,6,,18,,3h[8:2],,,,4,,18,,6h[16:1],5,6,,7,,18,,6,,
5h[8:1]/3,,2,,6/4h[8:1],,7,,3/5h[8:1],,1,,6/4h[8:1],,8,,75,,64,,53,,42,,
{32}
15,2,3,4,5,6,7,8,1,2,3,4,5,6,7,8,
{8}
5bpp4[16:8]/1b,,,3bqq4[8:4],,,,,8h[8:8],,7,,6,,5,,
4bqq5[16:8],,,6bpp5[16:8],,,,,2h[8:8],,1,8,7,6,5,4,
3bqq5[16:8],,,6bpp4[8:4],,,,,3h[8:8],,1,,8,,7,,
6,6-1[8:1],5,6,,3,3-8[8:1],4,3,6pp1[16:5],5,4,3,2,,
2qq5[8:5]/7pp4[8:5],,,,,,,,,{32}3b/6b,,,,,,,,,,,,,,,,
{8}
1,2,3,5/4>1[8:2],,,,,8,7qq2[16:7],6,5<8[16:4],,,,,1,2,3,
4>1[8:2]/5,,,7,6pp6[16:5],6,3,,4-2[8:1],,5-1[32:4],,6,6,,7,
8<5[8:2]/1,,,4pp7[16:9],3,2,2,,1>4[8:2],,,8,7,7h[8:4],,4,
3,2-5[8:1],4,2,6,7-3[8:1],4,7,2,1-5[8:1],4,1,6,7<4[32:6],5>2[32:6],3>8[32:6],
{16}
1<6[32:6],,,,,,5,4,3,2,
5,6,7,8,2,3,4,5,
8,7,6,5,8,1,2,3,
6,5,7,4,8,3,1,2,
8-4[8:1],,3-7[8:1],,8,,3,,
6-2[8:1],,1-5[8:1],,6,,1>4[8:1]*<6[8:1],,
,,1w5[8:1],,,,1,,
,,7qq3[16:7]/3,,2,,1,,
8,,1,,2h[8:2],,,,
8,7,6,5,8,1,2,3,
5,6,7,8,5,4,3,2,
7,8,6,1,5,2,4,3,
5-1[8:1],,2-6[8:1],,5,,2,,
7-3[8:1],,4-8[8:1],,7,,4,,
6-2[8:1],,2,,6,,1,,
3<6[32:6],,5<8[32:6],,7>2[32:6],,1>4[32:6],,
,,,,5,6,7,8,
5,4,3,2,81,7,6,5,
4<7[8:1]/3,,1,,2,,3,,
8/4>1[8:1],,7,,6,,5,,
8/4-8[16:2],,,,34,,2,,
1,2,3,4,1,8,7,6,
54,3,2,1,8-4[8:1]/7,,,,
8/4>5[8:2],,,,1,,,,
{4}
2-5[8:1],1/2pp2[16:4],2/6-1[8:1],6pp6[16:4],
6/4>1[8:1],4q5[16:4],4/7-3[16:2],7,
{8}
65,83,34,16,47,83,52,61,
{16}
7,1,5,3,8,2,6,4,
{24}
8,7,6,1,2,3,5-1[8:1],6,7,4,3,2,
{4}
5bpp5[8:8]*qq5[8:8],
,,,,,3h[4:2],,2<7[8:10],,,,2,3,4qq4[8:12],5,
{8}
6pp6[8:12],,,,,,,,
{4}
,,,,5-1[8:14],,,,,,,,
{32}
6,{1}5-1[16:29]*-1[16:29],,,,,,{4},,,E
&inote_6=
