&title=ラッキー☆オーブ
&artist=emon(Tes.) feat. 初音ミク
&first=0.04
&des=Hurtling☆Boy
&lv_5=13+
&inote_5=(126)
{1},
{4}3qq4[8:4],5h[8:1],7,8<5[8:1],
{4}2pp1[8:4],6h[8:1],7v6[8:1],,
{4}6xpp5[8:4],4h[8:1],2,1>4[8:1],
{4}7qq8[8:4],3h[8:1],1x>4[8:1],1<6p5[8:7],
{4}5xh[8:1],4h[8:1],3h[8:1],2qq3-5[8:7],
{4}4h[8:1],5h[8:1],6h[8:1],7>2[4:1],{4}2>5[4:1],5<8[4:1],8>3[4:1],3<7[8:2],
{8}7V13[8:2],,3V57[8:2],,8,1,{16}2-5[16:1],8,1,,
{32}2b/E7f,E8,E1,,{8},8,3h[8:1],B6,2,7qq7[4:1],1,7-1[12:1]/2b,3,
4h[8:1],,{16}3,4,2,2,6<1[12:1],5,7,,
{32}6b/E3f,E4,E5,,{8},8,3h[8:1],B5,2,4-8[12:1],1,
3bh[8:1],,4qq2[8:1]*pp6[8:1],,4b,,6x<1[12:1]/2x>5[12:1],,
{4}6b/2b,{8}8/4>1[8:1],7<4[8:1],4,7,2pp4[8:1],6,7b,8,1<5[8:1],,{16}4,,2,2,{8}4-8[8:1]/3x-1[12:1],,
4b/3b,,{16}7,5,6,6,2,4,3,3,7-3[8:1],8,6,,
{4}7b/3,2>5[12:1]/6<1[12:1],6b/2b,2b>5[12:1],
{32}2b/E7f,E8,E1,,{8},{4}3h[8:1]/4h[8:1],5h[8:1]/6h[8:1],2h[8:1]/5h[8:1],4h[8:1]/7qq7[4:1],3h[8:1]/7-1[12:1],2h[8:1],4h[8:1]/6<1[12:1],
{32}6b/E3f,E4,E5,,{8},3<6[8:1],2,1-4[8:1],8,7>2[8:1],6,5pp7[8:1]*qq3[8:1],,5,,6b<1[12:1]/1b>4[12:1],,6b/1b,,
{32}3xb/E6h[8:1],,,,1h[8:1],,,,{16}4<7[16:1],3,3,,{32}B2h[8:1],,,,
{16}8xh[8:1],,{16}5-2[16:1],6,6,,
{32}B7h[8:1],,,,1xh[8:1],,,,{16}4-7[16:1],3,3,,{32}B2h[8:1],,,,
{16}8xh[8:1],,{16}4,6,6,,
{16}1,4,3,4,1,5,4,5,1,6,5,6,2,7,5,7,2,2,4,4,5,5,7,7,{32}2b,3,4,5,6,7,8,1,{32}2/C,3,4,5,6,7,8,1,
{16}Cf/2b,,,,7,8,,46,,3,4,2,
7-3[8:1],8,6,5,
{16}7b,,,,2,1,,53,,6,5,7,
2-6[8:1],1,3,4,
{16}2b,,,,7,1,,46,,3,4,2,
8>6[16:3],1,7,3,
{16}8b
,,,,
E2h[16:4],B1h[16:3],B7h[16:2],E7h[16:1],Chf,,,,7V51[16:3]/4,,,,
{16}7b/3,,,,4,6,,24,,7,8,5,2V84[16:3],2,7,7,
{16}2b/6x,,,,5xV31[8:1],3xh[16:1],,,7b/5xb,,,,8<4[8:1],,,,
8/2bV86b[8:1],,,,5b>1b[8:1]/2,,,,7bV53[8:1]/5,,,,7/2b<6b[8:1],,,,
4bV68-2[4:1],,,,2<4[4:1],,,,4V68-2[8:2],,,,2,,,,
3,,,3,B8,,6,,3,,,3,B8/E8,,6,,2>5[8:1],,,2,B8/E8,,6,,2>5[8:1],,,2,B8/E8,,6,,
6-1[8:1],,,6,B3/E4,,2,,6-1[8:1],,,6,B3/E4,,2,,7<4[8:1],,,7,B3/E4,,1,,7x<4[8:1],1x,8x,2x,B3/E4,,,,
1/2>5[8:1],,,7,2,,8,,1/2>5[8:1],,,7,2,,8,,
1-5[8:1],,2-4-8[8:2],,1,,2,,,,7v1[8:1],,1^8^7^6^5^4^3^2^1^8^7b[8:4],,3h[8:4],,,,,,,,,,2h,,2h,,2q5[16:5],,8,8,2,,,,
8-4[8:1],,,,3>6[4:1],,,,6<3[4:1],,,,
{16}4-8b[12:1],,,,4b,,,,2>5[8:1]/8,,,1,2pp1[8:2],,7,,
{8}2/8<5[8:1],,8>3[8:1],,8/7<4[8:1],{16},,2q5[8:2],,,,
{16}6h[8:1],,,,7,,8,,1-6[8:1],,3-8[8:1],,1,,3<6[8:1],,
{8},1,2-6[8:1],8-4[8:1],2,8,1h[16:1],1h[16:1],
{8}7<4[8:1]/1,2,7qq8[4:1]/3,2,1>4[8:1]/7,2,1-6[8:1],{16}7x,,
{8}1>4[8:1],4,1-6[8:1],7,1>4[8:1]*V35[8:1],4,1,,
7/8q5[8:1]*p3[8:1],,8,,
5/6<1[8:1],,56,4,
3>8[8:1]/4,,43,5,
6-1[8:1]/5-2[8:1],,56,,
{24}3x,2x,1x,8x,7x,6x,3,2,1,8,7,6,3,2,1,8,7,6,3,2,1-5[4:1],8,7,6,
{16}5b/1,,,,,,{48},,,B4,B3,B2,{16}B1,,7x,,2>5[12:1],8,1,,
{32}2b/E7f,E8,E1,,{8},7-5[12:1],8-4[8:1],7,8,1-5[8:1],2-4-8[16:3],1b,2,7h[8:1],,
{16}3,4,2,2,{16}6<1[12:1],5,7,,
{32}6b/E3f,E4,E5,,{8},2-4[12:1],1-5[8:1],2,1,8-4[8:1],7-5-1[16:3],8b,7,2w6[8:1],,2b,,8w4b[12:1],,
{4}8b,{8}6/2<7[8:1],1,2/6>3[8:1],5,2v3-5[16:3]/6,1,6b,8,1-7v6[8:1],,4,{16}2,2,{8}4-7[8:1]*-1[8:1],,
4b,,{16}3,5,4,4,7,1,8,2,7-3[8:1],3,6,,
{4}7/3b,2>5[12:1]/6<1[12:1],6b/2b,2>5[12:1],
{32}2b/E7f,E8,E1,,{8},{8}3/4h[8:1],1,5h[8:1]/6,8,2/5h[8:1],1,4-8[8:1]/7<4[8:1],8,4/7,,
{16}2,4,3,3,6<1[12:1],5,7,,
{32}6b/E3f,E4,E5,,{8},{8}6/5h[8:1],8,4h[8:1]/3,1,7/4h[8:1],8,5-1[8:1]/2>5[8:1],1,5/2,,1w5[12:1],,1b,,
{32}8xb/3,7x,6x,,2,,,,{16}4-7[16:1],3,3,,{32}1bx,2x,3x,,
{16}8x,,5-2[16:1],6,6,,
{32}8xb,7x,6x,,1x,,,,{16}4-7[16:1],2,2,,{32}1bx,2x,3x,,
{16}8x,,4,6,6,,
1,4,3,4,1,5,4,5,1,6,5,6,2,7,5,7,2,2,4,4,5,5,7,7,{32}2b,3,4,5,6,7,8,1,2/C,3,4,5,6,7,8,1,
{16}Ch[384:1]f/2,,,,7,8,,46,,3,4,2,
7qq8[16:3],8,6,4,
{16}7b,,,,2,1,,53,,6,5,7,
3qq4[16:3],1,2,5,
||{16}3b,,,,7,1,,46,,3,4,2,
8pp3[16:5]*qq5[16:5],1,7,3,
||{16}Ch[384:1]f/2,,,,8b<5[8:1],3,,2,8b,2,2,4,
1-5[8:1],6,4,8,
||{16}1b,,,,1b>4[8:1],8,,8,1b,7,7,5,
8-4[8:1],3,5,1,
{16}3b,,,,7,1,,46,,3,4,2,
8-3-6[16:3],1,7,3,
{16}8b
,,,,
E2h[16:4],B1h[16:3],B7h[16:2],E7h[16:1],Ch[384:1]f,,,,7V51[16:3]/4,,,,
||{16}7,,,,7,8,,46,,3,4,2,
7qq6[16:2]*pp8[8:1],8,6,8,
||{16}7b,,,,2,1,,53,,6,5,7,
3qq4[16:3],1,2,8,
{16}27,,,,3b-8[8:1],4,,4,3b,7,7,,
2bv3-5[8:1],1,3,5,
||{16}27,,,,8b<5[8:1],3,,2,8b,2,2,4,
1v3-5[8:1],6,4,8,
{16}2b,,,,6b-1[8:1],5,,5,6b,2,2,,
7bV53[8:1],8,6,4,
{16}7b,,,,2b,8,,8,2b,6,5,7,
1bqq6[16:5]*pp4[16:5],8,2,6,
{16}1b
,,,,
,,,,4h[4:2]/6h[8:1],,,,2-7[12:1],,,,
{16}2,,,,3b-7[8:1],5,,5,3b,6x,6x,,1bxpp3[16:2],1xqq7[16:1],1x,1x,
{16}1bx,,,,5,2,2,,7b/5xb-1[12:1],,,,8<4[8:1],,,,
8/2bV86b[8:1],,,,5b>1b[8:1]/2,,,,7bV53[8:1]/5,,,,7/2b,,,,
8bx,6,5,6,1,7,5,7,{32}2bx,3,4,5,6,7,8,1,{32}2/7bxh,6h,5h,4h,3h,2h,1h,8h,
{16}7<4[8:1]/3,,,2,7,,1,,
7<4[8:1]/3,,,2,7,,1,,
7<4[8:1]/3,,,2,7-5-2b[16:4],,1,,
7/3h[8:2],,,,,,,,
E
