&title=Psyched Fevereiro
&artist=t+pazolite
&first=0.02
&des=IcreApte-100
&lv_6=13+
&inote_6=(150){1},
{1},
{16}4h[4:1],,,,1,8,7,6,3h[4:1],,,,8,7,6,5,
{16}2h[4:1],,,,7,6,5,4,1h[4:1],,,,6,5,4,3,
{16}1h[4:1],,,,4,5,6,7,2h[4:1],,,,5,6,7,8,
{16}3h[4:1],,,,6,7,8,1,4h[4:1],,,,7,8,1,2,
{8}4,4,6,6,2,2,8,8,
{16}2,1,4,7,5,6,2,7,1,8,3,6,4,5,1,6,
{32}2b,3,4,5,6,7,8,1,2,3,4,5,6,7,8,1,2,3,4,5,6,7,8,1,2,3,4,5,6,7,8,1,
{4}2/4b<1[4:1],1p5[16:3]*p3[16:3],,,
{16}2h[8:1]/6,,,,2h[8:1]/6,,7,8,,5,4,,1,,2/8,,
{16}7h[8:1]/3,,,,7h[8:1]/3,,2,1,,4,5,,8,,7/1,,
{16}6h[8:1]/2,,,,6h[8:1]/2,,8,7,,4,5,,3,,2/8,,
{16}7,5,6,4,5,3,6,5,7,3,5,4,6,,1/7,,{16}6h[8:1]/2,,,,6h[8:1]/2,,3,4h[8:1],,1,8h[8:1],,5,,6/4,,
{16}3h[8:1]/7,,,,3h[8:1]/7,,6,5h[8:1],,8,1h[8:1],,4,,3/5,,
{16}2h[8:1]/6,,,,2h[8:1]/6,,4,3h[8:1],,8,1h[8:1],,7,,6/4,,
{16}3,7,2,1,3,7,4,5,3,7,2,8,1-4[8:1]*-6[8:1],,3/7,,
{16}1b<2[4:1],,,,1/5,,,8,,6,6,,5v8[8:1]*v2[8:1],,3/7,,
{16}5b>6[4:1],,,,5/1,,,3,,1,1,,8v2[8:1]*v6[8:1],,1/7,,
{16}8b>7[4:1],,,,8/4,,,1,,3,3,,4-1[8:1]*v7[8:1],,3/5,,
{16}4b<3[4:1],,,,4/8,,,5,,7,7,,8<4[4:1]/4v1[8:1],,1,,
{16}8b/4b>8[4:1],,,,8,,,4,,2,2,,1-5[8:1]/8-6[8:1],,7,,
{16}8b>7[4:1]/1b,,,,4/8,,,1,,2,2,8,8v3[8:1]*<5[8:1],,,,
{16}8b>4[4:1],,,,8/4<8[4:1],,,1,,2,2,,3,,4,,
{16}4,,8,5,7,6,,8,,1,4,2,3b<1[4:15],,,,
{1},
{1},
{1},
{1},
{16}7h[4:1]/4,,4,,4,,4,,7h[4:1],,4,,4,,4,,
{16}8h[4:1],,3,,3,,3,3,8h[4:1],,3,3,,,3,,
{16}6h[4:1]/1,,1,,1,,1,,6h[4:1],,1,,1,,1,,
{16}5h[4:1],,2,,2,,2,,5h[4:1],,2,,2,5,,5,
{4}1V35[4:3],5h[1:0],6h[1:0],7h[1:0],
{4}8V64[4:3],4h[1:0],3h[1:0],2h[1:0],
{4}2V86[4:3],3h[1:0],4h[1:0],5h[1:0],
{4}5V71[4:3],4h[1:0],3h[1:0],2h[1:0],
{8}2,2,5,5,3,3,6,6,
{8}4,4,7,7,1,1,8,8,
{16}3,4,1,6,8,7,3,6,4,5,2,7,1,8,4,7,
{16}2,1,3,8,5,6,4,7,3-5[8:1]/8V62[4:1],,1,,3b/8b,,,,
{16}4h[8:1],,8,,4h[8:1],,8,,4h[8:1],,8,,4h[8:1],,8,,
{16}3h[8:1],,7,,3h[8:1],,7,7,3h[8:1],,7,7,3h[8:1],,7,,
{16}2h[8:1],,6,,2h[8:1],,6,,2h[8:1],,6,,2h[8:1],,6,,
{16}1h[8:1],,5,,1h[8:1],,5,5,1h[8:1],,5,5,1h[8:1],,5,,
{16}1,5,2,6,3,7,4,8,3,7,4,8,3,7,2,6,
{16}1,5,2,6,1,5,2,6,3,7,4,8,5,7,3,1,
{16}4,6,2,8,3,5,1,7,2,4,8,6,1,7,2,8,
{16}1h[1:0],2h[1:0],8h[1:0],7h[1:0],2h[1:0],3h[1:0],7h[1:0],6h[1:0],3h[1:0],4h[1:0],6h[1:0],5h[1:0],2h[1:0],3h[1:0],7h[1:0],6h[1:0],
{16}2-5[8:1],2,5-1[8:1],,,,,,7-4[8:1],7,4-8[8:1],,,,,,
{16}3-1[8:1],3,1-5[8:1],,,,,,7-4[8:1],7,4-7[8:1],,,,,,
{16}1b-5[8:1],8,2-4[8:1],,1,,2,,6-2[8:1],5,7-1[8:1],,6,,7,,
{16}4-8[8:1],5,3-1[8:1],,4,,3,,7,7,4,4,6,6,3,3,
{16}5b-1[8:1],4,6-8[8:1]/3,,5,,6,,3V15[4:1],4,7,,3,,8,,
{16}7V58[4:1],8,4,,7,,3,,1-5[8:1],2,3h[4:1],,1,,,,
{16}7h[1:0],4h[1:0],6h[1:0],5h[1:0],8h[1:0],3h[1:0],1h[1:0],2h[1:0],6h[1:0],3h[1:0],5h[1:0],4h[1:0],7h[1:0],2h[1:0],8h[1:0],1h[1:0],
{16}5h[1:0],2h[1:0],4h[1:0],3h[1:0],6h[1:0],1h[1:0],7h[1:0],8h[1:0],6,6,1,1,5,5,2,2,
{16}6b-4[8:1]/3b-1[8:1],7,4-8[8:1]/8,,6/3,,,,1-6[8:1],2,3-5[8:1],,1,,3,,
{16}7-4[8:1],8,1-3[8:1],,7,,1,,5-1[8:1],6,7h[4:1],,5,,,,
{16}2-8[8:1]/7-5[8:1],3,8-4[8:1]/4,,2/7,,,,5-8[8:1],6,7/3-1[8:1],,5,,3,,
{16}7-4[8:1],6,5/2-8[8:1],,7,,2,,5,5,1,1,6,6,2,2,
{16}8b-5[8:1],7,6/4-1[8:1],,8,,4,,6-1[8:1],7,8/2-5[8:1],,6,,2,,
{16}7-4[8:1],8,1/3-8[8:1],,7,,3,,5-8[8:1],6,7h[4:1],,5,,,,
{16}2h[1:0],1h[1:0],4h[1:0],7h[1:0],3h[1:0],8h[1:0],5h[1:0],6h[1:0],2h[1:0],7h[1:0],1h[1:0],8h[1:0],3h[1:0],6h[1:0],4h[1:0],5h[1:0],
{16}8h[1:0],7h[1:0],2h[1:0],5h[1:0],1h[1:0],6h[1:0],3h[1:0],4h[1:0],2,8,1,7,2bpp5[4:3],,,,8h[8:1],,,,
{4}8h[8:1],8h[8:1],8h[8:1],
{16}8-4[8:1],,,,1-3[8:1]/8,,,,5h[8:1]/1,,,,7bqq4[4:3]/4b,7/4,,,
{4}1h[8:1],1h[8:1],1h[8:1],1h[8:1],{16}1-5[8:1],,,,8-6[8:1]/1,,,,4h[8:1]/8,,,,2/5,2/5,,1h[16:3],
{16},,4h[8:1],,3h[8:1],,6,5,,,7<4[8:1],,7,,3,,
{16}2-6[8:1],,,,8h[2:1]/2,,,,4,,3,,2,8,,,
{16},,1h[16:3],,7,7,,1,,,2/8,,3/7,,4/6,,
{16}5<1[4:1],,,,1-5[8:1],,,5,,,3h[16:3],,6,6,,2h[16:3],
{16},,8h[8:1],,5h[8:1],,7-3[8:1],4,,,7/2-5[8:1],,1-6[8:1],,2,,
{16}1,,,,4h[4:1],,,7,,,7h[16:3],,2,2,,3h[16:3],
{16},,6,,6,,4,4,,,1/7,,2/6,,3/5,,
{16}4>8[4:1],,,,8-4[8:1],,,5,,,6h[16:3],,3,3,,7h[16:3],
{16},,1h[8:1],,4h[8:1],,2-6[8:1],5,,,2/7,,8,,1,,
{16}3,4,1,6,8,7,3,6,4,5,2,7,1,8,4,7,
{32}3b,2,1,8,7,6,5,4,3,2,1,8,7,6,5,4,3,2,1,8,7,6,5,4,3,2,1,8,7,6,5,4,
{4}3/1b<4[4:1],4q8[16:3]*q2[16:3],,,
{1},
{4},,
E
