&title=Undying Macula
&artist=Ashrount
&first=0.02
&des=SnowFox
&lv_5=14+
&inote_5=(189)
{1},,,
{4}8b/A1/D2,,,8/A2/D3,{8},,8,7,6/A3/D4,,,6,,,A5/D5/7,,8,,1,,2/A6/D7,,,,,,2/A7/D8,,,,2,3,4/A8/D1,,,4,,,7x/3hx[4:1],,5hx[4:1],,7hx[4:1],,8b,,7,6,5,4,31,4,5,6,7<4[8:1],8,1,,2,3,4,5,68,5,4,3,2-6[8:1],1,8xV24V68[4:4]b*V64V28[4:4]b,,,,,,,,,,,,{32}1b/2b,3,4,5,,,,,,,,,,8b/7b,6,5,4,,,,{8},2b-6[8:1]/6b,,2b/7b-3[8:1],,1bw5[8:1]/7b,,1bqq2>7[4:5],,,,,,,,,,,,8<2[8:7]b,,,,,,,,,,{16}1-5[8:1],1,1,1,1b,,,,{8}46,4h[8:1]/6h[8:1],,35,3h[8:1]/5h[8:1],,2<7[8:1]/4,,2/4-1[8:1],,4-6-3-7<2[4:4]b,,,,,,8b,,,,,,12,,53,5h[8:1]/3h[8:1],,64,6h[8:1]/4h[8:1],,7>2[8:1]/5,,7/5-8[8:1],,5-3-6-2>7[4:4]b,,,,,,1b,,,,,,8x/7x,,12,8,37,4,{16}6,5,6,5,7,4,7,4,8,3,8,3,1x/2x,,,,7/8,,1,,26,,5,,3,4,3,4,2,5,2,5,1,6,1,6,{8}7x/8x,56,56,1x/2x,34,34,5x/6x,78,{16}1,8,2,7,{24}3,6,3,6,{16}4,5pp1[8:9]b,,,,,,,,{4},3,4-8[8:1],,7/2v3-5[8:3]*s6[8:3],,,{16}8bx/1bx,,,,2,4,2,4,3,,7h[8:1],,5,,6,5,6,,4,,5-1[8:1],,4,,5bx/3bx>8[8:1],,,,7,,,,6h[8:1],,1h[8:1],,5h[4:1],,,,E4/B3/A3,,E7/B7/A7,,1>4[8:1],,8,,1bx/7bx,,,,6h[4:1],,,,5,4,3,2,18,,7,,7,,86,,1,,1,,
2bx-5[8:1]/5bx,,,,8-4[8:1]/2,,,,18,,,,2v3-5[8:3]/7,,,,4h[16:1],,5h[16:1],,6h[16:1],,7h[16:1],,1bx/8bx,,,,7,5,7,5,6,,2h[8:1],,5,,67,,,,1,,2/3<6[8:1],,,,8bx-4[8:1]/3bx,,,,1,,,,2h[8:1],,6h[8:1],,{32}A3/D3,E4,E5,A5,,,A7/D7,E8,E1,A1,,
,,3,,,,{8}5-1[8:1],46,3bx/5bx,,2h[4:1],,{16}8,7,6,5,{8}34,2,2,18,7,7,{16}5,6,4,5,3,4,2,1,3,8,4,7,5-1[8:1]b/6-1[8:1]b,,,,56,,,,{24}2b/8b,3,4,5h[8:1],,,{8}6<1[8:1]b,4,6bx/3x,,4h[8:1],5,6<1[8:1]b,4,6bx/3x,,4h[8:1],5,6<1[8:1]b,4,6bx/3x,,2,2,{32}21,8,7,6,5,4,3,2,1,8,7,6,5h[8:1],,,,{8}3b,,2>5[8:1]b,1,2bx/8x,,8h[8:1],1,2>5[8:1]b,8,2bx/7x,,8h[8:1],1,2>5[8:1]b,8,2bx/7x-4[8:1],,74,,{32}1,2,3,4,5,6,7,8,1,2,3,4h[8:1],,,,,6b,,,,,,,,{16}3b,5b,4b,,{32}1x/2x,83,74,65,,,,,{8}7h[8:1],3,{16}6b,4b,5b,,{32}8x/7x,16,25,34,,,,,{16}2h[8:1],,6,,3b,5b,4b,,{32}1x/8x,27,36,45,,,,,{8}1-4[8:1]/8-5[8:1],,1pp8[4:4]/8qq1[4:4],,,,,,,,,,,,2hx[4:5]/7hx[4:5],,,,,,,,,,,,D2/B1/A1f/5h[8:2],,,3h[8:2]/A7f/E8/D8,,,{16}6,4,6,4,6,,35,,26,,17,,{8}D4/B4/A4f/8h[8:2],,,2h[8:2]/A6f/E6/D6,,,1h[8:1]/8h[8:1],,6h[8:1]/5h[8:1],,3h[8:1]/4h[8:1],,2h[8:1]/E6/B6/A6f,,1,8h[8:1]/B4/E4/A4f,,7,26,{16}3,3,5bx-8[8:1],,4,,5bx/3,,2,,1hx[8:1]/7hx[8:1],,,1hx[8:1]/7hx[8:1],,,1x/7x,,6,,7,,{32}8/2b,3,4,5,,,,,2b,3,4,5,,,,,2b<4[4:1],3,4,5,
,,,,,,,,,,,,{8}1b-5[8:1],,16,,{16}7,4,6,3,5,,34,,1>7[8:3]/2,,8,,21,,,,1,,,,1,,,,2/8-4[8:1],,,,8/3-8[8:1],,,,36,,,,1x/2x,,34,,34,,8x/7x,,56,,56,,4x/3x,,12,,8,1,7,2,{24}6,3,6,3,{16}5,4w8[4:1]b,,,,,,,,,,,,{48}6hx[4:6]/2x,3,4,5,,7,8,1,2,3,4,{32}5,,7,8,1,2,3,4,5,{16},7,8,1,2,3,4,5,{8},7,8,,1,,,,,,{4}8b/A1/D2,,,8/A2/D3,{8},,8,7,6/A3/D4,,,6,,,A5/D5/7,,8,,Chf[4:1],,7V53[4:2],,,,1,1,1V75[4:2],,,,3,3,3w7[8:2]b,,,,,,1hx[4:1]/5x,,3hx[4:1],,5xh[4:1],,8b,,7,6,5,4,31,4,5,6,7<4[8:1],8,1,,2,3,4,5,68,5,4,3,2-6[8:1],1,8xV24V68[4:4]b*V64V28[4:4]b,,,,,,,,,,,,{32}1b/2b,3,4,5,,,,,,,,,,8b/7b,6,5,4,,,,{8},2b-6[8:1]/6b,,2b/7b-3[8:1],,1bw5[8:1]/7b,,1b>4q5<8<5p4>1[4:10]b,,,,{4},,,,,,,,,{8}7-3[8:1],,7qq4<8[4:8]b/1h[4:2],,,,,,1h[2:1],,,,,,
2h[11:2],,,2h[11:2],,,{16}1,,,1,,,17,,,17,,,{8}2x/8x,1,1,1,1,1,{12}2x/8x,1,1,1,1,1,1,1,1,2x/8x,1,1,1,1,1,1,1,1,1{16}2x/8x,1,1,1,1bx,1,1,1,1bx,1,1,1xs5V31[16:17],{8}1xz5V71[8:8]b,,,,,,,,,,,,{64}E1,A1,E2,,,,,,,,,,,,,,{8},,,,2h[8:3],,,6h[8:3],,,5b>1[8:2],,6,7,8-4[8:1],,8-3[8:1],,8-5[8:1],,8,,4<8[4:1],,3,2,1-5[8:1],,1-6[8:1],,1-4[8:1],,1,,8>4[4:1],,7,6,5-1[8:1],,5-2[8:1],,5-8[8:1],,5,,2,3,4,5,6,7,8<5[8:1]/4>1[8:1],,8-4[8:1]/4,,8,,6b<1[8:1],5,4,3<6[8:1],2,1,8-6[8:1],,8-4[8:1]/2,,84,,3b>8[8:1],4,5,6>3[8:1],7,8,1-3[8:1],,1-5[8:1]/7,,15,,64,3,3,28,7,7,
5/6-2[8:1],,4-8[8:1]/6,,14,1,{8}27,2,2,{16}3,4,{24}6,5,4,{16}1,2,3-7[8:1]b/8<5[8:1]b,,,,3/8w4[8:1]b,,,,8b,,,,2-5[8:1]/6,,3,4,2,,8,,57,,46,,7-3[8:1]/3,,6,5,7,,1,,42,,35,,4/6-8[8:1],,3,2,1-5[8:1]/6,,2-7[8:1],2,1,,2,,6,,6,,{24}85,1,2,{8}34,56,18,{16}7-4[8:1]/3,,6,5,7,,1,,42,,53,,2-6[8:1]/6,,3,4,2,,8,,57,,64,,3-7[8:1],,5,,36,,8-4[8:1],,5,,83,,{24}2b,1,8,7,6,5,1b,8,7,6,5,4,8b,7,6,5,4,3,{8}2x/1x-5[4:5],,,,,,,,,,,,8,,,7,,,65,,45,,34,,{32}2b/5,1,8,7,6,5,4,3,2,1,8,7,6,5,4,3,2,1,8,7,6,5,4,3,2,1,8,7,6,5,4,3,{48}2,1,8,7,6,5,4,3,2,1,8,7,6,5,4,3,2,1,8,7,6,5,4,3,2p5[4:4],,,,,,,,,,,,{8},,,,,,,,,,E8,,,,E3,,E4,,,,E6,,E7,,,,E8,,E1,,,,E4,,E5,,,,E7,,E8,,,,E2,,E3,,,,E4,,E5,,,,A7,,A8,,,,A1,,A2,,,,A3,,A4,,,,A5,,A6,,,,E1,,C,,,,E5,,C,,,,E7,,C,,,,E3,,C,,
