&title=Winged Step
&artist=Ivoris
&first=0
&des=Sometimes I like to imagine.
&lv_5=13+
&des_5=Sometimes I like to imagine.
&inote_5=
(123){4},{8},,,,,,B1,
B8,B2,B7,B3,B6,E5,Ch[8:15],
B7,B6,B5,B2,B3,B4,{4}E5,
{8}5,5,5,4,4,4,{4}4,
3h[4:1],4h[4:1],5h[4:1],{8}6,6,
,6h[4:1],,5,5,4h[4:1],,3,
,7,{4}7h[4:1],8h[4:1],{8}1,1,
,2h[4:1],,1,1,8h[4:1],,7-3[0.9756##0.9756],
,,,,,,,,2-6[0.7317##0.9756],
,,,,5,5<4>5[0.2439##3.6585],5h[8:7],
,,,,,,,,{1}4h[4:3],
{4}1h[4:1],2h[4:1],3h[4:1],{8}4,4,
,4h[4:1],,3,3,2h[4:1],,1,
,8,{4}7h[4:1],6h[4:1],{8}5,5,
,5h[4:1],,6,6,7h[4:1],,8-4[0.9756##0.9756],
,,,,,,,,7-3[0.7317##0.9756],
,,,,4,4>5<4[0.2439##3.6585],4h[8:7],
,,,,,,,,{1}5h[4:3],
{4}5b/4b,{8}8/2-6[0.7317##0.4878],2/8-4[0.9756##0.4878],,2<4[0.9756##0.9756],,8,
,2,{32},,A8,D8,A7,D7,A6,D6,{8}A5,,,8/1-4[8:1],
2,1/8-5[8:1],7,8/1-5[8:1],3,1/8-4[8:1],6,1h[8:9],
{16},,,,,,7x,6x,{8}5x,B7,E6,B4,
{4}C,{8}1/7-3[0.7317##0.4878],7/1-5[0.9756##0.4878],,7>5[0.9756##0.9756],,1,
,7,{32},,A1,D2,A2,D3,A3,D4,{8}A4,,,1/8<5[8:1],
7,8/1>4[8:1],2,1/8p4[8:1],6,8/1q5[8:1],3,1/8h[8:7],
,,,,{2}Ch[4:5],
{8}E8,E7,E6,E5,E4,E3,{16}E2,,,E1,
,E8/E2,,B7/B2,,E7/E3,,,{8}B6/B3,B5/B4,E5,Cf,
1/2-6[8:1],3,2/1-5[8:1],8,1/4-7[8:1],3,4/6-1[8:1],5,
6/2-7[8:1],4,2/6-3[8:1],8,6/2>5[8:1],1,2/7<4[8:1],8,
7/8-3[8:1],2,8/7-4[8:1],5,7/2>5[8:1],3,2/8-5[8:1],6,
4/8-3[8:1],2,4/8<5[8:1],6,4/8>3[8:1],2,8/4-7[8:1],4,
3/4-1[8:1],4,5/4<7[8:1],4,3/4>1[8:1],4,5/4V68[8:1],5,
3/4V28[8:1],3,5/4<1[8:1],5,3/4>7[8:1],3,4/5<4>5-7-1-3-1-7-5[1:2],5,
5/4,{16}B1,C,{8}B5,B8,B6,B1,B5,B2,
{16},,B8,C,{8}B4,B1,B3,B8,B4,B7,
,,{4}E8,E2,E5,
C,E6/E2,E8/E4,{8}E7/C/E3,{16}7-3[1.2195##0.2439],8,
{8}7h[8:3],,,8,7,{16},,,,2-6[1.2195##0.2439],1,
{8}2h[8:3],,,1,2,,,8-4[8:1],
1-5[8:1],8<5[8:1],1>4[8:1],8,{4}1,{8}5-1[8:1],4-8[8:1],
5<8[8:1],4>1[8:1],5s1[4:1]*z1[4:1],4,5,{16},,,,8x/4x,7x/3x,
{8}6xh[4:1]/2xh[4:1],,,5x/1x,8/4,{16},,,,1x/5x,2x/6x,
{8}3xh[4:1]/7xh[4:1],,,4x/8x,{4}1/5,C,
{8},8/7-4[8:1],7/8-3[8:1],7,{4}8<5[8:1],{8}8/1-5[8:1],2,
{4}1/5<4[4:3],{8}A5,A6,D8,D1,{4}D2,
{8},,7/1-5[0.7317##0.2439],1/7-3[0.9756##0.2439],,1/7>5[0.9756##0.9756],,7,
,7,{32},,A1,D2,A2,D3,A3,D4,{8}A4,,,1/8<5[8:1],
7,8/1>4[8:1],2,1/8v5[8:1],6,8/1v4[8:1],3,8h[8:9],
{16},,2x,3x,{8}4x,5x,6x,B2,E4,B5,
{4}C,{8}2/8-4[0.7317##0.2439],8/2-6[0.9756##0.2439],,8/2<4[0.9756##0.9756],,2,
,2,{32},,A8,D8,A7,D7,A6,D6,{8}A5,,,8/1-5[8:1],
2,1/8-4[8:1],7,8/1p4[8:1],3,1/8q5[8:1],6,8/1h[8:7],
,,,,{2}Cfh[2:1],
{32}E8,E1,{16}E2,,,{8}2h[8:1],7h[4:1],,3h[4:1],,6h[8:7],
,3h[4:5],,,,,,,4,
5,6,7,{4}8h[4:1],{8}1,8/1,
{32}1x,8x,1x,8x,1x,8x,1x,8x,1x,8x,1x,8x,1x,8x,1x,8x,1x,2x,3x/8x,7x,6x/2x,3x,4x/7x,6x,5x/1x,2x,3x/8x,7x,6x/2x,3x,4x/7x,6x,
{4}5bx/1b,{8}7h[8:1],2h[4:1],,6h[4:1],,3h[4:1],
,6h[4:5],B1,C,,B3,,,5,
4,3,2,{2}1qq1pp1[2:1],
,5qq5<5[1:1]*pp5>5[1:1],
{8},,,,,,,D1,
E1,E2/E8,B2/B7,E3/E7,B3/B6,B4/B5,E5,Cf,
8/7-3[8:1],6,7/8-4[8:1],1,8/5-2[8:1],6,5/3-8[8:1],4,
3/7-2[8:1],5,7/3-6[8:1],1,3/7<4[8:1],8,7/2>5[8:1],1,
2/1-6[8:1],7,1/2-5[8:1],4,2/7<4[8:1],6,7/1-4[8:1],3,
5/1-6[8:1],7,5/1>4[8:1],3,5/1<6[8:1],7,1/5-2[8:1],5,
6/5-8[8:1],5,4/5>2[8:1],5,6/5<8[8:1],5,4/5V31[8:1],4,
6/5V71[8:1],6,4/5>8[8:1],4,6/5<2[8:1],6,5/4v7[8:1],3,
4/5v2[8:1],6,5/4-8[8:1],3,4/5-1[8:1],6,{4}5z1<1[4:3]*s1>1[4:3],
{8},,,,,,,,7/2-4[8:1],
1,2/1-5[8:1],8,1/8-6[8:1],7,{4}8/2,
{8}2/7-5[8:1],8,7/8-4[8:1],1,8/1-3[8:1],2,{4}1/7,
3-6[8:1]/7-2[8:1],3-8[8:1]/7-4[8:1],3<5[8:1]/7>1[8:1],7<5[8:1]/3>1[8:1],
3-6[8:1]/7-2[8:1],3>8[8:1]/7<4[8:1],7b>2[8:1]/3b<6[8:1],7b/3b,
{8}2/7-5[8:1],8,7/8-4[8:1],1,8/1-3[8:1],2,{4}1/7,
{8}7/2-4[8:1],1,2/1-5[8:1],8,1/8-6[8:1],7,{4}8/2,
6-3[8:1]/2-7[8:1],6-1[8:1]/2-5[8:1],6>4[8:1]/2<8[8:1],2>4[8:1]/6<8[8:1],
6-3[8:1]/2-7[8:1],2/6,{32}2b/6b,3x/7x,4x/8x,5x/1x,,,,,2b/6b,5x/1x,4x/8x,3x/7x,
E
