&title=#1f1e33
&artist=かめりあ
&first=0.49
&des=AlanAugustine
&des_4=猫车画风
&des_5=AlanAugustine
&lv_5=14+
&inote_4=(181)
{4},,,,2bxh[1:3]/7bxh[1:3],,,,,,,,,,,,,,1-5[8:1]/8-4[8:1],1/8,
{4}Ch[4:3],,,,
{16}3/6,,,2/7,,,1/8,,,4/5,,,3/6,,,,
{4}1h[4:3]/8h[4:3],,,,
{16}4/5,,,3,,,2,,,4/5,,,6,,7,,
{4}Ch[4:3],,,,
{16}4/5,,,6,,,4/7,,,3,,,2/7,,1/8,,
{4}4h[4:3]/5h[4:3],,,,
{16}1,2,3,4,5,6,7,8,1h[4:1],,,,,,,,
{16},2b/3b,,,2b/3b,,,2b/3b,,,2bs6[8:1]/3b,,,,,,
{4}7x>7[4:3],,C,,2x<2[4:3],,C,,7x>7[4:3],,C,,2x<2[4:3],,C,,
{16}1b,,,1,,,1,,2b,,,2,,,2,,3b,,,3,,,3,,4b,,,4,,,4,,5,,5,,6,,6,,7,,7,,8,,8,,1,8,1,8,1,8,1,8,1s5[8:1],,,,,,,,
{16}3x/7-3[8:1],,,,7,,,2,,2,,2,2,,,,
{16}3/7z3[4:1],,,,7,,,2,,2,,2,2h[8:1],,,,
{16}4/7p4[4:1],,,,7,,,2,,2,,2,2,,,,
{16}4/7<4[8:1],,,,7,,3x,3x,3x,,E3,B2,B1,B8,B7,E7,
{16}6x/2-6[8:1],,,,2,,,7,,7,,7,7,,,,
{16}6/2s6[4:1],,,,2,,,7,,7,,7,7h[8:1],,,,
{16}5/2q5[4:1],,,,2,,,7,,7,,7,7,,,,
{16}3,4,3,4,3,4,3,,6,5,6,5,6,5,6,5,
{16}7-3[8:1],,,,7,,,2,,2,,2,2,,,,
{16}3/7z3[4:1],,,,7,,,2,,2,,2,2h[8:1],,,,
{16}4/7p4[4:1],,,,7,,,2,,2,,2,2,,,,
{16}4/7<4[8:1],,,,7,,3x,3x,3x,,E3,B2,B1,B8,B7,E7,
{16}2-5[8:1]/6x-3[8:1],,,,,,,4x,,8,8h[4:1],,,,,,
{16}7-4[8:1]/3x-6[8:1],,,,,,,5x,,1,1h[4:1],,,,,,
{16}3/6,,4,5,,,3/6,,,,E3,,,,E7,,
{16}C,,Ch[4:1],,,,,,4,5,4,5,4,5,4,5,
{8}2x-5[8:1],,2,7-4[8:1],,7,2,,
{16}E3,E4,E5,E6,E7,E8,E1,E2,B3,B4,B5,B6,B7,B8,B1,B2,
{8}7x-4[8:1],,7,2-5[8:1],,2,7,,
{16}E7,E6,E5,E4,E3,E2,E1,E8,B6,B5,B4,B3,B2,B1,B8,B7,
{8}2x-5[8:1],,2,7-4[8:1],,7,2,,
{16}8,1,8,1,7,2,7,2,6,3,6,3,5,4,5,4,
{8}7x-4[8:1],,7,2-5[8:1],,2,7,,
{16}1,,8,1,,8,1,,2/7,,,,1q5[4:1]/8,,,,
{8}1/5q1[4:1],,1-3[8:1]*-7[8:1],,,,
{16}5,4,5,4,6,5,6,5,6s2b[4:1],5,6,5,6,,,,8xp4[4:1],,,,
{8}8/4p8[4:1],,8-6[8:1]*-2[8:1],,,,
{16}4,5,4,5,3,4,3,4,3,4,3,4,3,2,1,8,7,6,5,4,
{4}3x-7[8:1]/7x-3[8:1],,2x-6[8:1]/6x-2[8:1],,4v1[8:1]/8v5[8:1],,2b/6b,,
{16}2-5[241.333333#6:1],,,7-4[241.333333#6:1],,,1-5[241.333333#6:1],,,8-4[241.333333#6:1],,,3,,,,
{16}7-4[241.333333#6:1],,,2-5[241.333333#6:1],,,8-4[241.333333#6:1],,,1-5[241.333333#6:1],,,6,,,,
{16}1/2,,,4/5,,,7/8,,5,4,,,2,,,,8/7,,,5/4,,,2/1,,4,5,,,7,,,,
{16}7-4[241.333333#6:1],,,2-5[241.333333#6:1],,,8-4[241.333333#6:1],,,1-5[241.333333#6:1],,,6,,,,
{16}2-5[241.333333#6:1],,,7-4[241.333333#6:1],,,1-5[241.333333#6:1],,,8-4[241.333333#6:1],,,3,,,,
{16}8/7,,,5/4,,,2/1,,4,5,,,7,,,,,7b/6b,,,7b/6b,,,7b/6b,,,7bz3[8:1]/6b,,,,,,
{4}2h[4:7],,,C,8h[4:1],,1h[4:1],,7h[4:7],,,C,4h[4:1],,1,2,
{4}3h[4:7],,,C,7h[4:1],,8h[4:1],,6h[4:5],,,C,3h[4:1],,
{16}1/8,,,1/8,,,1/8,,1/2,,,3/4,,,5/6,,,7/8,,,B6/B7,,B2/B3,,Ch[4:3],,,,,,,,,,,,,,,,
{16}8/7,,,6/5,,,4/3,,,2/1,,,B3/B2,,B7/B6,,Ch[4:3],,,,,,,,,,,,,,,,{16}8b,,,8,,,8,,7b,,,7,,,7,,6b,,,6,,,6,,5b,,,5,,,5,,4,,4,,3,,3,,2,,2,,1,,1,,8,1,8,1,8,1,8,1,7,2,7,2,7,2,7,2,
{4}Chf[1:1],,,,
{16}B1/B2/E2,,,Cf/B3/B4/E4,,,Cf/B5/B6/E6,,,Cf/B7/B8/E8,,,1xpp4[8:3],,,,
{16}1/5x,,,,6,,,7,,7,,7,1xq4[8:3]/7,,,,
{16}1/5,,,,6,,,7,,7,,7,1x-3-5[4:1]/7,,,,
{16}1/5x-2[8:1],,,,6,,,7,,7,,7,1xp4[4:1]/7,,,,
{16}1/5,,,,,,6x,6x,6x,,6x,7x,8xqq5[8:3],1x,2x,3x,
{16}8/4x,,,,3,,,2,,2,,2,8xp5[8:3]/2,,,,
{16}8/4,,,,3,,,2,,2,,2,8x-6-4[4:1]/2,,,,
{16}8/4x-7[8:1],,,,3b,,,2b,,,1b,,,8b,,,
{16}6,5,6,5,6,5,6,,3,4,3,4,3,4,3,4,
{16}2-6[8:1],,,,2,,,7,5,7,5,7,5,,,,7-3[8:1],,,,7,,,2,4,2,4,2,4,,,,
{4}1-5[8:1],1,8-4[8:1],8,
{16}3/6,,,3/6,,,3/6,,2-7[8:1]/7-2[8:1],,,,2/7,,,,
{16}3/8,,,4,,,,4-8b[16:3],5,4,5,4,,,,,6/1,,,5,,,5-1b[16:3],4,5,4,5,,,,,,
{16}2h[8:1],,,7h[8:1],,,1h[8:1],,,8h[8:1],,,4,5,4,5,3h[16:1],6h[16:1],3h[16:1],6h[16:1],3h[16:1],6h[16:1],3h[16:1],6h[16:1],3h[4:1],,,,,,,,
{4}1x-5[8:1]/2x-4[8:1],1/2,7x-5[8:1]/8x-4[8:1],7/8,
{16}3,,6,5,7,,3,4,2/E3,B3,B4,E5,B5,B6,E7,,
{4}8x-4[8:1]/7x-5[8:1],8/7,2x-4[8:1]/1x-5[8:1],2/1,
{16}6,,3,4,2,,6,5,7/E7,B6,B5,E5,B4,B3,E3,,
{4}1xp5[8:1]/2xp5[8:1],1/2,7xq4[8:1]/8xq4[8:1],7/8,
{16}2x,3x,4x,5x,6x,7x,8x,1x,2,3,4,5,6h,,,,
{4}8xq4[8:1]/7xq4[8:1],8/7,2xp5[8:1]/1xp5[8:1],2/1,
{16}3xh[8:1]/6xh[16:1],,,3h[16:1]/6h[8:1],,,2h[8:1]/7h[16:1],,,2h[16:1]/7h[8:1],,,1b/8b,,,,
{4}1x-5[8:1]/2x-4[8:1],1/2,7x-5[8:1]/8x-4[8:1],7/8,
{16}3,,6,5,8,,3,4,1,2,3,4,5/Ch[8:1],,,,
{4}8x-4[8:1]/7x-5[8:1],8/7,2x-4[8:1]/1x-5[8:1],2/1,
{16}6,,3,4,1,,6,5,8b,,,8b,,,8b,,
{4}2x-7[8:1]/3x-6[8:1],2/3,6x-3[8:1]/7x-2[8:1],6/7,
{16}1b/8b,,,1b/8b,,,2b/7b,,,2b/7b,,,4/5,,,,
{16}1-5[8:1],,,5,,,8-4[8:1],,,4,,,2-6[8:1],,,6,,,7-3[8:1],,,3,,,
{12}2,1,2,7,8,7,1bh[4:3]/8bh[4:3],,,,,,,,,,,,
{16}7-4[241.333333#6:1],,,2-5[241.333333#6:1],,,8-4[241.333333#6:1],,,1-5[241.333333#6:1],,,6,,,,
{16}2-5[241.333333#6:1],,,7-4[241.333333#6:1],,,1-5[241.333333#6:1],,,8-4[241.333333#6:1],,,3,,,,
{16}8/7,,,5/4,,,2/1,,4,5,,,7,,,,1/2,,,4/5,,,7/8,,5,4,,,2,,,,
{16}2-5[241.333333#6:1],,,7-4[241.333333#6:1],,,1-5[241.333333#6:1],,,8-4[241.333333#6:1],,,3,,,,
{16}7-4[241.333333#6:1],,,2-5[241.333333#6:1],,,8-4[241.333333#6:1],,,1-5[241.333333#6:1],,,6,,,,
{16}1/2,,,4/5,,,7/8,,5,4,,,2,,,,,1b/8b,,,2b/7b,,,3b/6b,,,4b/5b,,,
&inote_5=(181)
{4},,,,1b<4>5[4:11]/8b>5<4[4:11],,,,,,,,,,,,,,
{16}E2,E8,E4,E6,C,,,,
{24}7b/8b,1/6,2/5,
{8}3z7b[120.666666#4:1]/4s8b[120.666666#4:1],,,,,,,
{16}C/6,,5,4,5,,3/C,,4,5,4,,E3/E7,,,,
{24}2b/1b,8/3,7/4,
{8}6s2b[120.666666#4:1]/5z1b[120.666666#4:1],,,,,,,
{16}C/3,,4,5,4,,6/C,,5,4,5,,
{32}E4/E6,B3/B6,B2/B7,,,,,,
{24}8b/1b,2/7,3/6,
{8}4z8b[120.666666#4:1]/5s1b[120.666666#4:1],,,,,,,
{16}2/7,,2-5[8:1],1,,1,2,,7-4[8:1],8,,8,7,,1,,
{24}1b/5b,6/2,7/3,
{8}8s4b[120.666666#4:1]/4s8b[120.666666#4:1],,,,,,,
{16}2,7,5,6,4,5,3,4,2qq8[8:1],,6,,2,,,,
{32}7x,,1b,2,3,4,,,1b,2,3,4,,,1b,2,3,4,,,1bs5[8:1],2,3,4,,,,,,,,,
{16}7-3[8:1],,3<1[8:3],,7,,,,1,2,3,4,5,,,,
{16}2-6[8:1],,6>8[8:3],,2,,,,8,7,6,5,4,,,,
{16}8-3[8:1],,7-4<1[8:3],,8,,7,,1,2,3,4,5,,,,
{16}1-6[8:1],,2-5>8[8:3],,1,,2,,8,7,6,5,4,,,,
{16}1/8,,3,3/4,,,2/5,,8/1,,6,6/5,,,7/4,,1/7,,3,3/4,,,2/5,,8/2,,6,6/5,,,7/4,,
{16}1,5,2,6,3,7,4,8,5,1,4,8,3,7,2,6,
{24}1,5,1,5,1,5,1,5,1,5,1,5,1h[4:1],,,,,,E5,B5,,,,,
{32}1/6,2,3,4,5,6,7,8,
{16}1h[4:1],,,5,,5,,5,2b-5-3-8[8:3]/5,,,,
{16}2/7-3[8:1],,,,7,,,5,,5,,5,1/5qq2[8:3],2/6,3/7,4/8,
{16}1<6[8:1]/5,,,,1,,,5,,5,,5,2b-4-6[4:1]/5,,,,
{16}2/6-3[12:1],,,,,,7,7,2,,1,1,5,3,6,4,
{32}8/3,7,6,5,4,3,2,1,
{16}8h[4:1],,,4,,4,,4,7b-4-6-1[8:3]/4,,,,
{16}7/2-6[8:1],,,,2,,,4,,4,,4,8/4pp7[8:3],7/3,6/2,5/1,
{16}8>3[8:1]/4,,,,8,,,4,,4,,4,7b<3[4:1]/4,,,,
{16}3>7[4:1]/7,,,,7,,,,3/7x,6x,5x,4x,3x/7,2x,1x,8x,
{16}3-8[8:1]/7v4[8:1],,,,3/7,,,5,,5,,5,2b-5-3-8[8:3]/5,,,,
{16}2/7-3[8:1],,,,7,,,5,,5,,5,1/5qq2[8:3],2/6,3/7,4/8,
{16}1<6[8:1]/5,,,,1,,,5,,5,,5,2b-5[8:1]/5,,,,
{16}2/7,,,,6b,,4,5b,4,,1b,5,3,8b,4,6,
{32}3b,2x,1x,8x,7x,6x,5x,4x,
{16}3h[4:1],,,8,,8,1bh[4:1]/8bh[4:1],,,,,,
{32}7b,6x,5x,4x,3x,2x,1x,8x,
{16}7h[4:1],,,4,,4,5bh[4:1]/4bh[4:1],,,,,,
{16}3,,,7,7,,1-5[8:1],7,2,8-4[8:1],1,,,8,,,
{16}3/6,,3/6,,,,4,7,3,6,2,5,1,6,8,7,
{16}2v5[8:1],,5>1[8:1],,2,,7<4[8:1],,8-4[8:1],,7,,8,,,,2/7,,2,4,3,5,4,6,5,7,8,6,1,7,2,,
{16}7v4[8:1],,4<8[8:1],,7,,2>5[8:1],,1-5[8:1],,2,,1,,,,7/2,,7,5,6,4,5,3,4,2,1,3,8,2,7,,
{16}2v5[8:1],,5-3-1[8:1],,2,,7-4[8:1],,8-4[8:1],,7,,8,,,,2/7,,8,1,7,2,6,3,5,4,6,3,7,2,8,1,
{16}7v4[8:1],,4-6-8[8:1],,7,,2-5[8:1],,1-5[8:1],,2,,1,,,,2,4,3,7,5,6,3,4,8,,,,2v5[16:1]/6>2[4:1],,,,
{16}2<6[4:1]/6,,,,5x-1[8:1],,,,5,,,,8,8,8,8,C,1,1,1,1p5[8:1]*q5[8:1],1,1,1,A1f,,,,7v4[16:1]/3<7[4:1],,,,
{16}7>3[4:1]/3,,,,4x-8[8:1],,,,4,,,,1,1,1,1,C,8,8,8,8-4[8:1],8,8,8,A8f,,,2,5,2,7,4,
{32}7/E8,B8,B1,E2,,,,,3,,6,,3,,6,,3/E4,B4,B5,E6,,,,,8,,1,,8,,1,,
{64}E1f/E2/E8,,B2,B7,B3,B6,E4,E6,,,,,,,,,
{16}3/6,,,,1,8,2,7,3,6,4,5,
{16}3h[8:1]/5h[8:1],,,4h[8:1]/6h[8:1],,,2h[8:1]/4h[8:1],,,5/7,5h[16:1]/7h[16:1],,2bh[8:1],,1,8,
{16}7h[8:1]/1h[8:1],,,8h[8:1]/2h[8:1],,,6h[8:1]/8h[8:1],,,1/3,1h[16:1]/3h[16:1],,6bh[8:1],,5,4,
{16}3-7[241.333333#6:1]/5-1[241.333333#6:1],,,3/5,C,,4-8[241.333333#6:1]/6-2[241.333333#6:1],,,4/6,C,,7,,1h[16:1],,2-6[241.333333#6:1]/8-4[241.333333#6:1],,,2/8,C,,1-5[241.333333#6:1]/7-3[241.333333#6:1],,,1/7,C,,6,,4h[16:1],,
{16}6h[8:1]/4h[8:1],,,5h[8:1]/3h[8:1],,,7h[8:1]/5h[8:1],,,4/2,4h[16:1]/2h[16:1],,7bh[8:1],,8,1,
{16}2h[8:1]/8h[8:1],,,1h[8:1]/7h[8:1],,,3h[8:1]/1h[8:1],,,8/6,8h[16:1]/6h[16:1],,3bh[8:1],,4,5,
{16}6-2[241.333333#6:1]/4-8[241.333333#6:1],,,6/4,C,,5-1[241.333333#6:1]/3-7[241.333333#6:1],,,5/3,C,,2,,8h[16:1],,
{32}2x,,8b,7,6,5,,,8b,7,6,5,,,8b,7,6,5,,,8bz4[8:1],7,6,5,,,,,,,,,
{4}2<2[4:7],,,1,8h[8:3],,7h[8:3],,7>7[4:7],,,8,1h[8:3],,1h,2h,
{4}3qq7>5[4:7],,,4,5h[8:3],,6h[8:3],,6pp2[8:7],,,3,4h[8:3],,
{16}3/6,,,3/6,,,3/6,,
{32}1/5,2,3,,,,2,3,4,,,,3,4,5,,,,4,5,6,,,,2,,,,2,,,,
{4}Ch[4:3],,,,
{32}8/4,7,6,,,,7,6,5,,,,6,5,4,,,,5,4,3,,,,7,,,,7,,,,
{24}Ch[4:3],,,,,,,,,E8,E7,E6,E5,,,,,,D1f,,,,,,
{16}8/1,,6,6/5,,,7/4,,1/8,,3,3/4,,,2/5,,8/2,,6,6/5,,,7/4,,1/7,,3,3/4,,,2/5,,
{16}8,4,7,3,6,2,5,1,4,8,5,1,6,2,7,3,
{24}8,4,8,4,8,4,8,4,8,4,8,4,
{64}A8,D8,A7,D7,A6,D6,A5,D5,A4,D4,A3,D3,A2,D2,A1,D1,E1,B8,E8,B7,E7,B6,E6,B5,E5,B4,E4,B3,E3,B2,E2,B1,
{1}Chf[1:1],
{16}2bh[8:1],,,7bh[8:1]/Cf,,,1bh[8:1]/Cf,,,8bh[8:1]/Cf,,,Cf/B1/B3/B5/B7,,,,
{48}E1/A5,B8,D6,B7,A6,B6,D7,B5,A7,E5,D8,A8,
{16}4x,,4,5,4,3,4,5,4b-2-7[4:1]/5-7-2[4:1],,,,
{16}4/5,,,,,,4,5,4,3,4,5,4-2-8[8:1]/5-3-1[8:1],,1-7-5[8:1]/8-6-4[8:1],,
{16}4/5,,,,,,4,5,4,3,4,5,4b/5,,,,
{48}4/5/E5,B4,B5,B3,B6,B2,B7,B1,B8,E1,,,
{16},,8,8,8,,1,6,2,7,3,8,
{48}E1/A4,B1,D4,B2,A3,B3,D3,B4,A2,E5,D2,A1,
{16}5x,,5,4,5,6,5,4,5-7-2[4:1]/4-2-7[4:1],,,,
{16}5/4,,,,,,5,4,5,6,5,4,5b-7-1[8:1]/4-6-8[8:1],,8-2-4[8:1]/1-3-5[8:1],,
{16}5/4,,,,4x/5x,,,3x/6x,,,2x/7x,,,1x/8x,,,
{16}2/6,3,4,5,2>6[4:1]/6,7,8,1,2/6<2[4:1],,,,2,,,,
{16}6x-1[8:1]/2xv5[8:1],,,,6/2,,,3,4,2,1,3,4h,,1h,,
{16}3x-8[8:1]/7xv4[8:1],,,,3/7,,,6,5,7,8,6,5h[16:1],,8h[16:1],,
{40}A3,E3,B2,B1,B8,B7,B6,B5,B4,E4,
{16}3x,,,3,4,3,2,3,4,,,,5/7,,,2/4,,,4/5,,8xw4[8:1],,,,A8f,,,,{32}6b,7x,8x,1x,2x,3x,4x,5x,
{16}6h[4:1],,,1,,1,8bh[4:1]/1bh[4:1],,,,,,
{32}2b,3x,4x,5x,6x,7x,8x,1x,
{16}2h[4:1],,,5,,5,4bh[4:1]/5bh[4:1],,,,,,
{16}6,,,2,2,,7,7,1,2,3,4,5,6,7,8,1b,1b,1b,1b,1b,1b,1b,1b,1bs5b[8:1],,,,,,,,
{16}3h[8:1]/8-6[8:1],,,2h[8:1],8b,,1h[8:1],,8-4[8:1],3h[8:1],,,2h[8:1]/8b,,,,
{16}1,7,3,5,2,8,4,6,1,8,3,4,1,8,5,6,
{16}5h[8:1]/1-3[8:1],,,7h[8:1],1b,,8h[8:1],,1-5[8:1],5h[8:1],,,6h/1b,,7h,,
{16}8,2,6,4,7,1,5,3,8,1,6,5,8,1,4,3,
{16}4h[8:1]/8<6[8:1],,,2h[8:1],8b,,1h[8:1],,8-5[8:1],4h[8:1],,,1h/8b,,2h,,
{16}3,6,3,4,3,2,3,8,3,6,5,6,7,6,1,6,
{16}7h[8:1]/1>3[8:1],,,6h[8:1],1b,,5h[8:1],,1-4[8:1],6h[8:1],,,7h/1b,,8h,,
{16}7,5,6,2,4,3,8,6,7,1,3,2,B2,B8,B4,B6,
{16}3h[8:1]/8-6[8:1],,,2h[8:1],8b,,1h[8:1],,8-4[8:1],3h[8:1],,,2h[8:1]/8b,,,,
{16}B1,B7,B3,B5,B2,B8,B4,B6,1v4[8:1],2,1,8,1b,,,,
{16}5h[8:1]/1-3[8:1],,,7h[8:1],1b,,8h[8:1],,1-5[8:1],5h[8:1],,,6h/1b,,7h,,
{16}B8,B2,B6,B4,B7,B1,B5,B3,
{32}8b,7,6,5,,,7b,6,5,4,,,6b,,,,
{16}4h[8:1]/8<6[8:1],,,2h[8:1],8b,,1h[8:1],,8-5[8:1],3h[8:1],,,4h/8b,,1h,,
{16}2b,4,3,7b,5,6,1b,3,2,8b,6,7,Cf,,,,
{16}1-5[8:1],,,5,5,,8-4[8:1],,,4,4,,2-6[8:1],,,6,6,,7-3[8:1],,,3,3,,
{12}2h,4h,2h,7h,5h,7h,
{24}1,8,1,8,1,8,1,8,1,8,1,8,1-5b[8:1],8,1,8,1,8,A1f,,,,,,
{16}6h[8:1]/4h[8:1],,,5h[8:1]/3h[8:1],,,7h[8:1]/5h[8:1],,,4/2,4h[16:1]/2h[16:1],,7bh[8:1],,8,1,
{16}2h[8:1]/8h[8:1],,,1h[8:1]/7h[8:1],,,3h[8:1]/1h[8:1],,,8/6,8h[16:1]/6h[16:1],,3bh[8:1],,4,5,
{16}6-2[241.333333#6:1]/4-8[241.333333#6:1],,,6/4,C,,5-1[241.333333#6:1]/3-7[241.333333#6:1],,,5/3,C,,2,,8h[16:1],,7-3[241.333333#6:1]/1-5[241.333333#6:1],,,7/1,C,,8-4[241.333333#6:1]/2-6[241.333333#6:1],,,8/2,C,,3,,5h[16:1],,
{16}3h[8:1]/5h[8:1],,,4h[8:1]/6h[8:1],,,2h[8:1]/4h[8:1],,,5/7,5h[16:1]/7h[16:1],,2bh[8:1],,1,8,
{16}7h[8:1]/1h[8:1],,,8h[8:1]/2h[8:1],,,6h[8:1]/8h[8:1],,,1/3,1h[16:1]/3h[16:1],,6bh[8:1],,5,4,
{16}3-7[241.333333#6:1]/5-1[241.333333#6:1],,,3/5,C,,4-8[241.333333#6:1]/6-2[241.333333#6:1],,,4/6,C,,7,,1h[16:1],,
{32}7x,,1b/E7f,2,3,4,,,8b/E3f,7,6,5,,,2b/E1f,3,4,5,,,7b/Cf,6,5,4,,,
E
