&title=Credits
&artist=Frums
&first=0
&des=Funding for this map was from Moying
&lv_7=?
&inote_7=(179){1},
||
full
screen
flash
{1}1h[8:11],
{8},,,
{12}
D8/D1/D2/A7/B8/E2/E7/B7/B2/D3/A6/B5/E4/D4/D5/D6/C,
A8/A1/E1/E8/B1/A2/D7/B6/B3/E3/E6/B4/A3/A4/A5/E5,
D8/D1/D2/A7/B8/E2/E7/B7/B2/D3/A6/B5/E4/D4/D5/D6/C,
A8/A1/E1/E8/B1/A2/D7/B6/B3/E3/E6/B4/A3/A4/A5/E5,
D8/D1/D2/A7/B8/E2/E7/B7/B2/D3/A6/B5/E4/D4/D5/D6/C,
A8/A1/E1/E8/B1/A2/D7/B6/B3/E3/E6/B4/A3/A4/A5/E5,
D8/D1/D2/A7/B8/E2/E7/B7/B2/D3/A6/B5/E4/D4/D5/D6/C,
{24}A8/A1/E1/E8/B1/A2/D7/B6/B3/E3/E6/B4/A3/A4/A5/E5,
{1}1h[8:11]/8h[8:11]/2h[8:11],
{8},,,
{12}
D8/D1/D2/A7/B8/E2/E7/B7/B2/D3/A6/B5/E4/D4/D5/D6/C,
A8/A1/E1/E8/B1/A2/D7/B6/B3/E3/E6/B4/A3/A4/A5/E5,
D8/D1/D2/A7/B8/E2/E7/B7/B2/D3/A6/B5/E4/D4/D5/D6/C,
A8/A1/E1/E8/B1/A2/D7/B6/B3/E3/E6/B4/A3/A4/A5/E5,
D8/D1/D2/A7/B8/E2/E7/B7/B2/D3/A6/B5/E4/D4/D5/D6/C,
A8/A1/E1/E8/B1/A2/D7/B6/B3/E3/E6/B4/A3/A4/A5/E5,
D8/D1/D2/A7/B8/E2/E7/B7/B2/D3/A6/B5/E4/D4/D5/D6/C,
{24}A8/A1/E1/E8/B1/A2/D7/B6/B3/E3/E6/B4/A3/A4/A5/E5,
{1}1h[8:11]/8h[8:11]/2h[8:11]/7h[8:11]/3h[8:11],
{8},,,
{12}
D8/D1/D2/A7/B8/E2/E7/B7/B2/D3/A6/B5/E4/D4/D5/D6/C,
A8/A1/E1/E8/B1/A2/D7/B6/B3/E3/E6/B4/A3/A4/A5/E5,
D8/D1/D2/A7/B8/E2/E7/B7/B2/D3/A6/B5/E4/D4/D5/D6/C,
A8/A1/E1/E8/B1/A2/D7/B6/B3/E3/E6/B4/A3/A4/A5/E5,
D8/D1/D2/A7/B8/E2/E7/B7/B2/D3/A6/B5/E4/D4/D5/D6/C,
A8/A1/E1/E8/B1/A2/D7/B6/B3/E3/E6/B4/A3/A4/A5/E5,
D8/D1/D2/A7/B8/E2/E7/B7/B2/D3/A6/B5/E4/D4/D5/D6/C,
{24}A8/A1/E1/E8/B1/A2/D7/B6/B3/E3/E6/B4/A3/A4/A5/E5,
{1}1h[8:11]/8h[8:11]/2h[8:11]/7h[8:11]/3h[8:11]/6h[8:11]/4h[8:11],
{8},,,
{12}
D8/D1/D2/A7/B8/E2/E7/B7/B2/D3/A6/B5/E4/D4/D5/D6/C,
A8/A1/E1/E8/B1/A2/D7/B6/B3/E3/E6/B4/A3/A4/A5/E5,
D8/D1/D2/A7/B8/E2/E7/B7/B2/D3/A6/B5/E4/D4/D5/D6/C,
A8/A1/E1/E8/B1/A2/D7/B6/B3/E3/E6/B4/A3/A4/A5/E5,
D8/D1/D2/A7/B8/E2/E7/B7/B2/D3/A6/B5/E4/D4/D5/D6/C,
A8/A1/E1/E8/B1/A2/D7/B6/B3/E3/E6/B4/A3/A4/A5/E5,
D8/D1/D2/A7/B8/E2/E7/B7/B2/D3/A6/B5/E4/D4/D5/D6/C,
{24}A8/A1/E1/E8/B1/A2/D7/B6/B3/E3/E6/B4/A3/A4/A5/E5,
||
square
flash
{8}B1/B3/B5/B7/C/1?-3[32.54#0]/7?-5[32.54#0]`1?-7[32.54#0]`3?-5[32.54#0],
,B1`B3`B5`B7`C,
{8}B1/B3/B5/B7/C,
,B1`B3`B5`B7`C,
{8}B1/B3/B5/B7/C,
,B1`B3`B5`B7`C,
{8}B1/B3/B5/B7/C,,
{12}B1/B3/B5/B7/C/7?-1[71.6#0]/5?-3[71.6#0]`3?-1[71.6#0]`5?-7[71.6#0],
B2`B4`B6`B8`C,
B1/B3/B5/B7/C,
B2`B4`B6`B8`C,
B1/B3/B5/B7/C,
B2`B4`B6`B8`C,
B1/B3/B5/B7/C,
{24}B2`B4`B6`B8`C,
{8}B1/B3/B5/B7/C/1?-3[32.54#0]/7?-5[32.54#0]`1?-7[32.54#0]`3?-5[32.54#0],
,B1`B3`B5`B7`C,
{8}B1/B3/B5/B7/C,
,B1`B3`B5`B7`C,
{8}B1/B3/B5/B7/C,
,B1`B3`B5`B7`C,
{8}B1/B3/B5/B7/C,,
{12}B1/B3/B5/B7/C/7?-1[71.6#0]/5?-3[71.6#0]`3?-1[71.6#0]`5?-7[71.6#0],
B2`B4`B6`B8`C,
B1/B3/B5/B7/C,
B2`B4`B6`B8`C,
B1/B3/B5/B7/C,
B2`B4`B6`B8`C,
B1/B3/B5/B7/C,
{24}B2`B4`B6`B8`C,
{8}B1/B3/B5/B7/C/1?-3[32.54#0]/7?-5[32.54#0]`1?-7[32.54#0]`3?-5[32.54#0],
,B1`B3`B5`B7`C,
{8}B1/B3/B5/B7/C,
,B1`B3`B5`B7`C,
{8}B1/B3/B5/B7/C,
,B1`B3`B5`B7`C,
{8}B1/B3/B5/B7/C,,
{12}B1/B3/B5/B7/C/7?-1[71.6#0]/5?-3[71.6#0]`3?-1[71.6#0]`5?-7[71.6#0],
B2`B4`B6`B8`C,
B1/B3/B5/B7/C,
B2`B4`B6`B8`C,
B1/B3/B5/B7/C,
B2`B4`B6`B8`C,
B1/B3/B5/B7/C,
{24}B2`B4`B6`B8`C,
{8}B1/B3/B5/B7/C/1?-3[32.54#0]/7?-5[32.54#0]`1?-7[32.54#0]`3?-5[32.54#0],
,B1`B3`B5`B7`C,
{8}B1/B3/B5/B7/C,
,B1`B3`B5`B7`C,
{8}B1/B3/B5/B7/C,
,B1`B3`B5`B7`C,
{8}B1/B3/B5/B7/C,,
{12}B1/B3/B5/B7/C/7?-1[71.6#0]/5?-3[71.6#0]`3?-1[71.6#0]`5?-7[71.6#0],
B2`B4`B6`B8`C,
B1/B3/B5/B7/C,
B2`B4`B6`B8`C,
B1/B3/B5/B7/C,
B2`B4`B6`B8`C,
B1/B3/B5/B7/C,
{24}B2`B4`B6`B8`C,
||
with
border
()
{8}B1/B3/B5/B7/C/1?-3[32.54#0]/7?-5[32.54#0]`1?-7[32.54#0]`3?-5[32.54#0]`2?^4[89.5#0]`8?^6[89.5#0],
,B1`B3`B5`B7`C,
{8}B1/B3/B5/B7/C,
2?^4[358#0]/8?^6[358#0],B1`B3`B5`B7`C`2?^4[119.33#0]`8?^6[119.33#0],
{8}B1/B3/B5/B7/C,
,2?^4[358#0]/8?^6[358#0]`B1`B3`B5`B7`C,
{8}B1/B3/B5/B7/C`2?^4[179#0]`8?^6[179#0],,
{12}B1/B3/B5/B7/C/4?^2b[71.6#0]/6?^8b[71.6#0]/7?-1[71.6#0]/5?-3[71.6#0]`3?-1[71.6#0]`5?-7[71.6#0],
B2`B4`B6`B8`C,
B1/B3/B5/B7/C,
B2`B4`B6`B8`C,
B1/B3/B5/B7/C,
B2`B4`B6`B8`C,
B1/B3/B5/B7/C,
{24}B2`B4`B6`B8`C,
{8}B1/B3/B5/B7/C/1?-3[32.54#0]/7?-5[32.54#0]`1?-7[32.54#0]`3?-5[32.54#0]`2?^4[89.5#0]`8?^6[89.5#0],
,B1`B3`B5`B7`C,
{8}B1/B3/B5/B7/C,
2?^4[358#0]/8?^6[358#0],B1`B3`B5`B7`C`2?^4[119.33#0]`8?^6[119.33#0],
{8}B1/B3/B5/B7/C,
,2?^4[358#0]/8?^6[358#0]`B1`B3`B5`B7`C,
{8}B1/B3/B5/B7/C`2?^4[179#0]`8?^6[179#0],,
{12}B1/B3/B5/B7/C/4?^2b[71.6#0]/6?^8b[71.6#0]/7?-1[71.6#0]/5?-3[71.6#0]`3?-1[71.6#0]`5?-7[71.6#0],
B2`B4`B6`B8`C,
B1/B3/B5/B7/C,
B2`B4`B6`B8`C,
B1/B3/B5/B7/C,
B2`B4`B6`B8`C,
B1/B3/B5/B7/C,
{24}B2`B4`B6`B8`C,
{8}B1/B3/B5/B7/C/1?-3[32.54#0]/7?-5[32.54#0]`1?-7[32.54#0]`3?-5[32.54#0]`2?^4[89.5#0]`8?^6[89.5#0],
,B1`B3`B5`B7`C,
{8}B1/B3/B5/B7/C,
2?^4[358#0]/8?^6[358#0],B1`B3`B5`B7`C`2?^4[119.33#0]`8?^6[119.33#0],
{8}B1/B3/B5/B7/C,
,2?^4[358#0]/8?^6[358#0]`B1`B3`B5`B7`C,
{8}B1/B3/B5/B7/C`2?^4[179#0]`8?^6[179#0],,
{12}B1/B3/B5/B7/C/4?^2b[71.6#0]/6?^8b[71.6#0]/7?-1[71.6#0]/5?-3[71.6#0]`3?-1[71.6#0]`5?-7[71.6#0],
B2`B4`B6`B8`C,
B1/B3/B5/B7/C,
B2`B4`B6`B8`C,
B1/B3/B5/B7/C,
B2`B4`B6`B8`C,
B1/B3/B5/B7/C,
{24}B2`B4`B6`B8`C,
{8}B1/B3/B5/B7/C/1?-3[32.54#0]/7?-5[32.54#0]`1?-7[32.54#0]`3?-5[32.54#0]`2?^4[89.5#0]`8?^6[89.5#0],
,B1`B3`B5`B7`C,
{8}B1/B3/B5/B7/C,
2?^4[358#0]/8?^6[358#0],B1`B3`B5`B7`C`2?^4[119.33#0]`8?^6[119.33#0],
{8}B1/B3/B5/B7/C,
,2?^4[358#0]/8?^6[358#0]`B1`B3`B5`B7`C,
{8}B1/B3/B5/B7/C`2?^4[179#0]`8?^6[179#0],,
{12}B1/B3/B5/B7/C/4?^2b[71.6#0]/6?^8b[71.6#0]/7?-1[71.6#0]/5?-3[71.6#0]`3?-1[71.6#0]`5?-7[71.6#0],
B2`B4`B6`B8`C,
B1/B3/B5/B7/C,
B2`B4`B6`B8`C,
B1/B3/B5/B7/C,
B2`B4`B6`B8`C,
B1/B3/B5/B7/C,
{24}B2`B4`B6`B8`C,
||
lyric
{8}
D7`B1/B3/B5/B7/C/1?-3[32.54#0]/7?-5[32.54#0]`1?-7[32.54#0]`3?-5[32.54#0]`2?^4[89.5#0]`8?^6[89.5#0],
A6,
D6`B1`B3`B5`B7`C,
D5`B1/B3/B5/B7/C,
D7`2?^4[358#0]/8?^6[358#0],
A6`B1`B3`B5`B7`C`2?^4[119.33#0]`8?^6[119.33#0],
D6`B1/B3/B5/B7/C,
D5,
D7`2?^4[358#0]/8?^6[358#0]`B1`B3`B5`B7`C,
D7`B1/B3/B5/B7/C`2?^4[179#0]`8?^6[179#0],
A6,
{24}
D6`B1/B3/B5/B7/C/4?^2b[71.6#0]/6?^8b[71.6#0]/7?-1[71.6#0]/5?-3[71.6#0]`3?-1[71.6#0]`5?-7[71.6#0],,B2`B4`B6`B8`C,
D6,B1/B3/B5/B7/C,,
D6`B2`B4`B6`B8`C,,B1/B3/B5/B7/C,
D6,B2`B4`B6`B8`C,,
D6`B1/B3/B5/B7/C,,B1`B3`B5`B7`C,
{8}
D7`B1/B3/B5/B7/C/1?-3[32.54#0]/7?-5[32.54#0]`1?-7[32.54#0]`3?-5[32.54#0]`2?^4[89.5#0]`8?^6[89.5#0],
{16}D6,D6,
D6`B1`B3`B5`B7`C,D6,
D6`B1/B3/B5/B7/C,,
D7`2?^4[358#0]/8?^6[358#0],D6,
D6`B1`B3`B5`B7`C`2?^4[119.33#0]`8?^6[119.33#0],D6,
D6`B1/B3/B5/B7/C,,
{64}A5,D5,A4,D4,,,,,
{8}D7`2?^4[358#0]/8?^6[358#0]`B1`B3`B5`B7`C,
A6`B1/B3/B5/B7/C`2?^4[179#0]`8?^6[179#0],
D7,
{48}
A6`B1/B3/B5/B7/C/4?^2b[71.6#0]/6?^8b[71.6#0]/7?-1[71.6#0]/5?-3[71.6#0]`3?-1[71.6#0]`5?-7[71.6#0],,,,
B2`B4`B6`B8`C,,D7,,
B1/B3/B5/B7/C,D7,,,
D7`B2`B4`B6`B8`C,,,D7,
B1/B3/B5/B7/C,,D7,,
B2`B4`B6`B8`C,,,,
A6`B1/B3/B5/B7/C,,,D6,
B2`B4`B6`B8`C,,
{8}
D7`B1/B3/B5/B7/C/1?-3[32.54#0]/7?-5[32.54#0]`1?-7[32.54#0]`3?-5[32.54#0]`2?^4[89.5#0]`8?^6[89.5#0],
A6,
D6`B1`B3`B5`B7`C,
A5`B1/B3/B5/B7/C,
A5`2?^4[358#0]/8?^6[358#0],
D5`B1`B3`B5`B7`C`2?^4[119.33#0]`8?^6[119.33#0],
D7`B1/B3/B5/B7/C,
{16}D7,A6,
{8}D6`2?^4[358#0]/8?^6[358#0]`B1`B3`B5`B7`C,
D7`B1/B3/B5/B7/C`2?^4[179#0]`8?^6[179#0],
A6,
{24}
D6`B1/B3/B5/B7/C/4?^2b[71.6#0]/6?^8b[71.6#0]/7?-1[71.6#0]/5?-3[71.6#0]`3?-1[71.6#0]`5?-7[71.6#0],,B2`B4`B6`B8`C,
D5,B1/B3/B5/B7/C,,
B2`B4`B6`B8`C,,B1/B3/B5/B7/C,
D6,B2`B4`B6`B8`C,,
D5`B1/B3/B5/B7/C,,B2`B4`B6`B8`C,
{8}
B1/B3/B5/B7/C/1?-3[32.54#0]/7?-5[32.54#0]`1?-7[32.54#0]`3?-5[32.54#0]`2?^4[89.5#0]`8?^6[89.5#0],
D6,
D5`B1`B3`B5`B7`C,
B1/B3/B5/B7/C,
D6`2?^4[358#0]/8?^6[358#0],
D5`B1`B3`B5`B7`C`2?^4[119.33#0]`8?^6[119.33#0],
B1/B3/B5/B7/C,
D6,
D5`2?^4[358#0]/8?^6[358#0]`B1`B3`B5`B7`C,
B1/B3/B5/B7/C`2?^4[179#0]`8?^6[179#0],
D6,
{24}
D5`B1/B3/B5/B7/C/4?^2b[71.6#0]/6?^8b[71.6#0]/7?-1[71.6#0]/5?-3[71.6#0]`3?-1[71.6#0]`5?-7[71.6#0],,B2`B4`B6`B8`C,
,B1/B3/B5/B7/C,,
D6`B2`B4`B6`B8`C,,B1/B3/B5/B7/C,
D5,B2`B4`B6`B8`C,,
{48}B1/B3/B5/B7/C,,D7,,D7`B2`B4`B6`B8`C,,
{8}
D7`B1/B3/B5/B7/C/1?-3[32.54#0]/7?-5[32.54#0]`1?-7[32.54#0]`3?-5[32.54#0]`2?^4[89.5#0]`8?^6[89.5#0],
A6,
D6`B1`B3`B5`B7`C,
D5`B1/B3/B5/B7/C,
D7`2?^4[358#0]/8?^6[358#0],
A6`B1`B3`B5`B7`C`2?^4[119.33#0]`8?^6[119.33#0],
D6`B1/B3/B5/B7/C,
D5,
D7`2?^4[358#0]/8?^6[358#0]`B1`B3`B5`B7`C,
D7`B1/B3/B5/B7/C`2?^4[179#0]`8?^6[179#0],
A6,
{24}
D6`B1/B3/B5/B7/C/4?^2b[71.6#0]/6?^8b[71.6#0]/7?-1[71.6#0]/5?-3[71.6#0]`3?-1[71.6#0]`5?-7[71.6#0],,B2`B4`B6`B8`C,
D6,B1/B3/B5/B7/C,,
D6`B2`B4`B6`B8`C,,B1/B3/B5/B7/C,
D6,B2`B4`B6`B8`C,,
D6`B1/B3/B5/B7/C,,B2`B4`B6`B8`C,
{8}
D7`B1/B3/B5/B7/C/1?-3[32.54#0]/7?-5[32.54#0]`1?-7[32.54#0]`3?-5[32.54#0]`2?^4[89.5#0]`8?^6[89.5#0],
{16}D6,D6,
D6`B1`B3`B5`B7`C,D6,
D6`B1/B3/B5/B7/C,,
D7`2?^4[358#0]/8?^6[358#0],D6,
D6`B1`B3`B5`B7`C`2?^4[119.33#0]`8?^6[119.33#0],D6,
D6`B1/B3/B5/B7/C,,
{64}A5,D5,A4,D4,,,,,
{8}D7`2?^4[358#0]/8?^6[358#0]`B1`B3`B5`B7`C,
A6`B1/B3/B5/B7/C`2?^4[179#0]`8?^6[179#0],
D7,
{48}
A6`B1/B3/B5/B7/C/4?^2b[71.6#0]/6?^8b[71.6#0]/7?-1[71.6#0]/5?-3[71.6#0]`3?-1[71.6#0]`5?-7[71.6#0],,,,
B2`B4`B6`B8`C,,D7,,
B1/B3/B5/B7/C,D7,,,
D7`B2`B4`B6`B8`C,,,D7,
B1/B3/B5/B7/C,,D7,,
B2`B4`B6`B8`C,,,,
A6`B1/B3/B5/B7/C,,,D6,
B2`B4`B6`B8`C,,
{8}
D7`B1/B3/B5/B7/C/1?-3[32.54#0]/7?-5[32.54#0]`1?-7[32.54#0]`3?-5[32.54#0]`2?^4[89.5#0]`8?^6[89.5#0],
A6,
D6`B1`B3`B5`B7`C,
A5`B1/B3/B5/B7/C,
A5`2?^4[358#0]/8?^6[358#0],
D5`B1`B3`B5`B7`C`2?^4[119.33#0]`8?^6[119.33#0],
D7`B1/B3/B5/B7/C,
{16}D7,A6,
{8}D6`2?^4[358#0]/8?^6[358#0]`B1`B3`B5`B7`C,
D7`B1/B3/B5/B7/C`2?^4[179#0]`8?^6[179#0],
A6,
{24}
D6`B1/B3/B5/B7/C/4?^2b[71.6#0]/6?^8b[71.6#0]/7?-1[71.6#0]/5?-3[71.6#0]`3?-1[71.6#0]`5?-7[71.6#0],,B2`B4`B6`B8`C,
D5,B1/B3/B5/B7/C,,
B2`B4`B6`B8`C,,B1/B3/B5/B7/C,
D6,B2`B4`B6`B8`C,,
D5`B1/B3/B5/B7/C,,B2`B4`B6`B8`C,
{8}
B1/B3/B5/B7/C/1?-3[29.83#0.25]/5?-7[29.83#0.25]`7?-1[29.83#0.25]`3?-5[29.83#0.25]`2?^4[89.5#0]`8?^6[89.5#0],
D6,
D5`B1`B3`B5`B7`C,
B1/B3/B5/B7/C,
D6`2?^4[358#0]/8?^6[358#0],
D5`B1`B3`B5`B7`C`2?^4[119.33#0]`8?^6[119.33#0],
B1/B3/B5/B7/C,
D6,
D5`2?^4[358#0]/8?^6[358#0]`B1`B3`B5`B7`C,
B1/B3/B5/B7/C`2?^4[119.33#0.25]`8?^6[119.33#0.25],
D6,D5,,,
D7f,D6f,
||
traffic
lights
{16}
A8/B8/E1/D1/3?qq5[32.54#0]*qq4[32.54#0],,A6/B6/E6/D6,A8/B8/E1/D1,,A8/B8/E1/D1,,A6/B6/E6/D6,
A7`D8`D7`B7`E8`E7,,A6/B6/E6/D6,A8/B8/E1/D1,,A8/B8/E1/D1,,A6/B6/E6/D6,
A8/B8/E1/D1,,A6/B6/E6/D6,A8/B8/E1/D1,,A8/B8/E1/D1,4?q5[71.6#0]`4?q6[71.6#0],A6/B6/E6/D6,
A7`D8`D7`B7`E8`E7,,A6/B6/E6/D6,
A8/B8/E1/D1,,A8/B8/E1/D1,
A7`D8`D7`B7`E8`E7,A7`D8`D7`B7`E8`E7,
{16}
A8/B8/E1/D1/3?qq5[32.54#0]*qq4[32.54#0],,A6/B6/E6/D6,A8/B8/E1/D1,,A8/B8/E1/D1,,A6/B6/E6/D6,
A7`D8`D7`B7`E8`E7,,A6/B6/E6/D6,A8/B8/E1/D1,,A8/B8/E1/D1,,A6/B6/E6/D6,
A8/B8/E1/D1,,A6/B6/E6/D6,A8/B8/E1/D1,,A8/B8/E1/D1,4?q5[71.6#0]`4?q6[71.6#0],A6/B6/E6/D6,
A7`D8`D7`B7`E8`E7,,A6/B6/E6/D6,
A8/B8/E1/D1,,A8/B8/E1/D1,
A7`D8`D7`B7`E8`E7,A7`D8`D7`B7`E8`E7,
{16}A8/B8/E1/D1/3?qq5[32.54#0]*qq4[32.54#0],,A6/B6/E6/D6,A8/B8/E1/D1,,A8/B8/E1/D1,{24},,A6/B6/E6/D6,
{16}A7`D8`D7`B7`E8`E7,,A6/B6/E6/D6,A8/B8/E1/D1,,A8/B8/E1/D1,{24},,A6/B6/E6/D6,
{16}A8/B8/E1/D1,,A6/B6/E6/D6,A8/B8/E1/D1,,A8/B8/E1/D1,{24}4?q5[71.6#0]`4?q6[71.6#0],,A6/B6/E6/D6,
{16}A7`D8`D7`B7`E8`E7,,A6/B6/E6/D6,A8/B8/E1/D1,,A8/B8/E1/D1,A7`D8`D7`B7`E8`E7,A7`D8`D7`B7`E8`E7,
{16}A8/B8/E1/D1/3?qq5[32.54#0]*qq4[32.54#0],,A6/B6/E6/D6,A8/B8/E1/D1,,A8/B8/E1/D1,{24},,A6/B6/E6/D6,
{16}A7`D8`D7`B7`E8`E7,,A6/B6/E6/D6,A8/B8/E1/D1,,A8/B8/E1/D1,{24},,A6/B6/E6/D6,
{16}A8/B8/E1/D1,,A6/B6/E6/D6,A8/B8/E1/D1,,A8/B8/E1/D1,A6/B6/E6/D6/4?q5[119.33#0]`4?q6[119.3#0],,
{16}A7`D8`D7`B7`E8`E7,A6/B6/E6/D6,,A8/B8/E1/D1,{4},
||
symbols
{16}2?-4[716#0]*^8-6[716#0],,7?-1^2[716#0]`6?^5-3[716#0],2?-4[716#0]*^8-6[716#0],,2?-4[716#0]*^8-6[716#0],,7?-1^2[716#0]`6?^5-3[716#0],7?-3b[716#0]/1?-5b[716#0]/6?^4b[716#0],,7?-1^2[716#0]`6?^5-3[716#0],2?-4[716#0]*^8-6[716#0],
,2?-4[716#0]*^8-6[716#0],,7?-1^2[716#0]`6?^5-3[716#0],2?-4[716#0]*^8-6[716#0],,7?-1^2[716#0]`6?^5-3[716#0],2?-4[716#0]*^8-6[716#0],,2?-4[716#0]*^8-6[716#0],
,7?-1^2[716#0]`6?^5-3[716#0],7?-3b[716#0]/1?-5b[716#0]/6?^4b[716#0],,7?-1^2[716#0]`6?^5-3[716#0],2?-4[716#0]*^8-6[716#0],,2?-4[716#0]*^8-6[716#0],{32}7?-3b[716#0]/1?-5b[1432#0]/6?^4b[1432#0],,{16}7?-3b[716#0]/1?-5b[716#0]/6?^4b[716#0],,
2?-4[716#0]*^8-6[716#0],7?-1^2[716#0]`6?^5-3[716#0],2?-4[716#0]*^8-6[716#0],,7?-1^2[716#0]`6?^5-3[716#0],,7?-1^2[716#0]`6?^5-3[716#0],7?-3b[716#0]/1?-5b[716#0]/6?^4b[716#0],,7?-1^2[716#0]`6?^5-3[716#0],2?-4[716#0]*^8-6[716#0],
,2?-4[716#0]*^8-6[716#0],,7?-1^2[716#0]`6?^5-3[716#0],2?-4[716#0]*^8-6[716#0],,
7?-1^2[716#0]`6?^5-3[716#0],2?-4[716#0]*^8-6[716#0],,2?-4[716#0]*^8-6[716#0],
,7?-1^2[716#0]`6?^5-3[716#0],7?-3b[716#0]/1?-5b[716#0]/6?^4b[716#0],,7?-1^2[716#0]`6?^5-3[716#0],2?-4[716#0]*^8-6[716#0],,2?-4[716#0]*^8-6[716#0],7?-3b[716#0]/1?-5b[716#0]/6?^4b[716#0],,
{16}2?-4[716#0]*^8-6[716#0],,7?-1^2[716#0]`6?^5-3[716#0],2?-4[716#0]*^8-6[716#0],,2?-4[716#0]*^8-6[716#0],,7?-1^2[716#0]`6?^5-3[716#0],7?-3b[716#0]/1?-5b[716#0]/6?^4b[716#0],,7?-1^2[716#0]`6?^5-3[716#0],2?-4[716#0]*^8-6[716#0],
,2?-4[716#0]*^8-6[716#0],,7?-1^2[716#0]`6?^5-3[716#0],2?-4[716#0]*^8-6[716#0],,7?-1^2[716#0]`6?^5-3[716#0],2?-4[716#0]*^8-6[716#0],,2?-4[716#0]*^8-6[716#0],
,7?-1^2[716#0]`6?^5-3[716#0],7?-3b[716#0]/1?-5b[716#0]/6?^4b[716#0],,7?-1^2[716#0]`6?^5-3[716#0],2?-4[716#0]*^8-6[716#0],,2?-4[716#0]*^8-6[716#0],{32}7?-3b[716#0]/1?-5b[716#0]/6?^4b[716#0],,{16}7?-3b[716#0]/1?-5b[716#0]/6?^4b[716#0],,
2?-4[716#0]*^8-6[716#0],7?-1^2[716#0]`6?^5-3[716#0],2?-4[716#0]*^8-6[716#0],,7?-1^2[716#0]`6?^5-3[716#0],,7?-1^2[716#0]`6?^5-3[716#0],7?-3b[716#0]/1?-5b[716#0]/6?^4b[716#0],,7?-1^2[716#0]`6?^5-3[716#0],2?-4[716#0]*^8-6[716#0],
,2?-4[716#0]*^8-6[716#0],,7?-1^2[716#0]`6?^5-3[716#0],2?-4[716#0]*^8-6[716#0],,
7?-1^2[716#0]`6?^5-3[716#0],2?-4[716#0]*^8-6[716#0],,2?-4[716#0]*^8-6[716#0],
,7?-1^2[716#0]`6?^5-3[716#0],7?-3b[716#0]/1?-5b[716#0]/6?^4b[716#0],,7?-1^2[716#0]`6?^5-3[716#0],2?-4[716#0]*^8-6[716#0],
{32}A6f`A2,D6f`D2,A5f`A1,D5f`D1,A4f`A8,D4f`D8,A3f`A7,D3f`D7,
{16}A2f`A6`B1/B3/B5/B7/C/1?-3[32.54#0]/7?-5[32.54#0]`1?-7[32.54#0]`3?-5[32.54#0]`2?^4[89.5#0]`8?^6[89.5#0],D2f`D6,
A1f`A5,D1f`D5,A4`A8f`B1`B3`B5`B7`C,D4`D8f,
A3`A7f`B1/B3/B5/B7/C,D3`D7f,
A2`A6f`2?^4[358#0]/8?^6[358#0],D2`D6f,A1`A5f`B1`B3`B5`B7`C`2?^4[119.33#0]`8?^6[119.33#0],D1`D5f,
A4f`A8`B1/B3/B5/B7/C,D4f`D8,
{8}A3f`A7,A2f`A6`2?^4[358#0]/8?^6[358#0]`B1`B3`B5`B7`C,
A1f`A5`B1/B3/B5/B7/C`2?^4[179#0]`8?^6[179#0],A4`A8f,
{24}
A3`A7`B1/B3/B5/B7/C/4?^2b[71.6#0]/6?^8b[71.6#0]/7?-1[71.6#0]/5?-3[71.6#0]`3?-1[71.6#0]`5?-7[71.6#0],,
B2`B4`B6`B8`C,A2`A6,
B1/B3/B5/B7/C,,
A1`A5`B2`B4`B6`B8`C,,
B1/B3/B5/B7/C,A4`A8,
B2`B4`B6`B8`C,,
A3`A7`B1/B3/B5/B7/C,,
B2`B4`B6`B8`C,
{8}A6`A2`B1/B3/B5/B7/C/1?-3[32.54#0]/7?-5[32.54#0]`1?-7[32.54#0]`3?-5[32.54#0]`2?^4[89.5#0]`8?^6[89.5#0],
,A6`A2`B1`B3`B5`B7`C,
{8}B1/B3/B5/B7/C,
A6`A2`2?^4[358#0]/8?^6[358#0],B1`B3`B5`B7`C`2?^4[119.33#0]`8?^6[119.33#0],
{8}A6`A2`B1/B3/B5/B7/C,
,A6`A2`2?^4[358#0]/8?^6[358#0]`B1`B3`B5`B7`C,
{8}B1/B3/B5/B7/C`2?^4[179#0]`8?^6[179#0],A6`A2,
{24}B1/B3/B5/B7/C/4?^2b[71.6#0]/6?^8b[71.6#0]/7?-1[71.6#0]/5?-3[71.6#0]`3?-1[71.6#0]`5?-7[71.6#0],,
B2`B4`B6`B8`C,A6`A2,
B1/B3/B5/B7/C,,
B2`B4`B6`B8`C,,
B1/B3/B5/B7/C,A6`A2,
B2`B4`B6`B8`C,,
B1/B3/B5/B7/C,,
B2`B4`B6`B8`C,
{8}A6`A2`B1/B3/B5/B7/C/1?-3[32.54#0]/7?-5[32.54#0]`1?-7[32.54#0]`3?-5[32.54#0]`2?^4[89.5#0]`8?^6[89.5#0],
,B1`B3`B5`B7`C,
{8}B1/B3/B5/B7/C,
2?^4[358#0]/8?^6[358#0],B1`B3`B5`B7`C`2?^4[119.33#0]`8?^6[119.33#0],
{8}B1/B3/B5/B7/C,
,2?^4[358#0]/8?^6[358#0]`B1`B3`B5`B7`C,
{8}B1/B3/B5/B7/C`2?^4[179#0]`8?^6[179#0],,
{12}B1/B3/B5/B7/C/4?^2b[71.6#0]/6?^8b[71.6#0]/7?-1[71.6#0]/5?-3[71.6#0]`3?-1[71.6#0]`5?-7[71.6#0],
B2`B4`B6`B8`C,
B1/B3/B5/B7/C,
B2`B4`B6`B8`C,
B1/B3/B5/B7/C,
B2`B4`B6`B8`C,
B1/B3/B5/B7/C,
{24}B2`B4`B6`B8`C,
{8}B1/B3/B5/B7/C/1?-3[32.54#0]/7?-5[32.54#0]`1?-7[32.54#0]`3?-5[32.54#0]`2?^4[89.5#0]`8?^6[89.5#0],
,B1`B3`B5`B7`C,
{8}B1/B3/B5/B7/C,
2?^4[358#0]/8?^6[358#0],B1`B3`B5`B7`C`2?^4[119.33#0]`8?^6[119.33#0],
{8}B1/B3/B5/B7/C,
,2?^4[358#0]/8?^6[358#0]`B1`B3`B5`B7`C,
{8}B1/B3/B5/B7/C`2?^4[179#0]`8?^6[179#0],,
{12}B1/B3/B5/B7/C/4?^2b[71.6#0]/6?^8b[71.6#0]/7?-1[71.6#0]/5?-3[71.6#0]`3?-1[71.6#0]`5?-7[71.6#0],
B2`B4`B6`B8`C,
B1/B3/B5/B7/C,
B2`B4`B6`B8`C,
B1/B3/B5/B7/C,
B2`B4`B6`B8`C,
B1/B3/B5/B7/C,
{24}B2`B4`B6`B8`C,
{8}B1/B3/B5/B7/C/1?-3[32.54#0]/7?-5[32.54#0]`1?-7[32.54#0]`3?-5[32.54#0]`2?^4[89.5#0]`8?^6[89.5#0],
,B1`B3`B5`B7`C,
{8}B1/B3/B5/B7/C,
2?^4[358#0]/8?^6[358#0],B1`B3`B5`B7`C`2?^4[119.33#0]`8?^6[119.33#0],
{8}B1/B3/B5/B7/C,
,2?^4[358#0]/8?^6[358#0]`B1`B3`B5`B7`C,
{8}B1/B3/B5/B7/C`2?^4[179#0]`8?^6[179#0],,
{12}B1/B3/B5/B7/C/4?^2b[71.6#0]/6?^8b[71.6#0]/7?-1[71.6#0]/5?-3[71.6#0]`3?-1[71.6#0]`5?-7[71.6#0],
B2`B4`B6`B8`C,
B1/B3/B5/B7/C,
B2`B4`B6`B8`C,
B1/B3/B5/B7/C,
B2`B4`B6`B8`C,
B1/B3/B5/B7/C,
{24}B2`B4`B6`B8`C,
{8}B1/B3/B5/B7/C/1?-3[32.54#0]/7?-5[32.54#0]`1?-7[32.54#0]`3?-5[32.54#0]`2?^4[89.5#0]`8?^6[89.5#0],
,B1`B3`B5`B7`C,
{8}B1/B3/B5/B7/C,
2?^4[358#0]/8?^6[358#0],B1`B3`B5`B7`C`2?^4[119.33#0]`8?^6[119.33#0],
{8}B1/B3/B5/B7/C,
,2?^4[358#0]/8?^6[358#0]`B1`B3`B5`B7`C,
{8}B1/B3/B5/B7/C`2?^4[179#0]`8?^6[179#0],,
{12}B1/B3/B5/B7/C/4?^2b[71.6#0]/6?^8b[71.6#0]/7?-1[71.6#0]/5?-3[71.6#0]`3?-1[71.6#0]`5?-7[71.6#0],
B2`B4`B6`B8`C,
B1/B3/B5/B7/C,
B2`B4`B6`B8`C,
B1/B3/B5/B7/C,
B2`B4`B6`B8`C,
B1/B3/B5/B7/C,
{24}B2`B4`B6`B8`C,
{8}B1/B3/B5/B7/C/1?-3[32.54#0]/7?-5[32.54#0]`1?-7[32.54#0]`3?-5[32.54#0]`2?^4[89.5#0]`8?^6[89.5#0],
,B1`B3`B5`B7`C,
{8}B1/B3/B5/B7/C,
2?^4[358#0]/8?^6[358#0],B1`B3`B5`B7`C`2?^4[119.33#0]`8?^6[119.33#0],
{8}B1/B3/B5/B7/C,
,2?^4[358#0]/8?^6[358#0]`B1`B3`B5`B7`C,
{8}B1/B3/B5/B7/C`2?^4[179#0]`8?^6[179#0],,
{12}B1/B3/B5/B7/C/4?^2b[71.6#0]/6?^8b[71.6#0]/7?-1[71.6#0]/5?-3[71.6#0]`3?-1[71.6#0]`5?-7[71.6#0],
B2`B4`B6`B8`C,
B1/B3/B5/B7/C,
B2`B4`B6`B8`C,
B1/B3/B5/B7/C,
B2`B4`B6`B8`C,
B1/B3/B5/B7/C,
{24}B2`B4`B6`B8`C,
{8}B1/B3/B5/B7/C/1?-3[29.83#0.25]/5?-7[29.83#0.25]`7?-1[29.83#0.25]`3?-5[29.83#0.25]`2?^4[89.5#0]`8?^6[89.5#0],
,B1`B3`B5`B7`C,
{8}B1/B3/B5/B7/C,
2?^4[358#0]/8?^6[358#0],B1`B3`B5`B7`C`2?^4[119.33#0]`8?^6[119.33#0],
{8}B1/B3/B5/B7/C,
,2?^4[358#0]/8?^6[358#0]`B1`B3`B5`B7`C,
{8}B1/B3/B5/B7/C`2?^4[119.33#0.25]`8?^6[119.33#0.25],,
B1`B3`B5`B7`C,
