&title=ANEMONE
&artist=BEMANI Sound Team "HuΣeR × Yvya" feat.紫村 花澄
&first=1
&des=MUFC
&lv_5=14
&inote_5=(87){16}
7h[16:11]/3h[16:1],,5h[16:1],,2h[16:1],,4h[16:1],,
1h[16:1],,3h[16:1],,1v4[16:1]/8qq4[16:4],,4h[16:1]/5h[16:1],,
8b/1b,,3v8[16:1]*pp6[16:4],,2,,3,,
,,1,,7v4[16:1]/3qq8[16:4],,51,,
73,,5qq7[16:4],,6,,5/1q5[16:1],,
,,1,,8v5[16:1]/1pp5[16:4],,27,27,
18,,6v1[16:1]*qq3[16:4],,7,,6,,
,,8,,6v1[16:1]/2pp5[16:4],,84,,
62,,8,8,8-4[16:1],,5/3,,
1^7[16:1]/8^2[16:1],,4^6[16:1]/5^3[16:1],,1v4[16:1]/8qq4[16:4],,45,,
8b/1b,,3qq8[16:4]*v6[16:1],,2,,3,,
,,4,,2v5[16:1]/6pp1[16:4],,48,,
26,,4pp2[16:4],,3,,4/8p4[16:1],,
,,8,,8v5[16:1]/1pp5[16:4],,27,27,
18,,6pp6[16:3]*v3[16:1],6,6,,6,,
,,4-1[16:1]/5-8[16:1],,45,36,45,,
2-5[16:1],8,4-7[16:1],6,2,,4,,
4qq2[16:1]/8qq6[16:1],,1q5[16:1]/5q1[16:1],,8b/4b,,5b/1b,,
4h[16:1],,4h[16:1],,4h[16:1],,5h[16:1]/3>6[16:4],,
5h[16:1],,5h[16:1],,5h[16:1],,5h[16:1],,
6h[16:1],,6h[16:1],,6h[16:1],,1h[16:1]/7-3[16:4]*-3[16:4],,
1h[16:1],,1h[16:1],,1h[16:1],,1h[16:1],,
2h[16:1],,2h[16:1],,2h[16:1],,7h[16:1]/3q5[16:4],,
7h[16:1],,7h[16:1],,7h[16:1],,7h[16:1],,
{32}
36,,,,2,5,2,5,2,,,,7,4,7,4,
7,,,,3,6,3,6,3,,,,8,1,8,1,
7-4[16:1],,6,5,6,,6,5,7,,,,3,,,,
2-5[16:1],,3,4,3,,3,4,2,,,,6,,,,
8-4[16:1],,7,5,7,,8,4,8,,,,2,,,,
1-5[16:1],,2,4,2,,1,5,1,,,,7,,,,
8-4[16:1],,7,5,6,,7,4,8,,,,2,,,,
1-5[16:1],,2,4,3,,2,5,1,,,,7,,,,
8-4[16:1],4,8,4,7,5,7,5,8,,,,2,5,2,5,
{16}
2,,2/6,6,7^1[16:1]/1,1^3[16:1],3^5[16:1]/5,5^7[16:1],
7,,,2h[16:6],,,8h[16:4],,
,,,,2^8[16:1],8^6[16:1],6^4[16:1],4^2[16:1],
2,,,7h[16:6],,,1h[16:4],,
,,6,2,5,3,6,2,
1/7-5[16:1],,1-4[16:1]/7,,1/7-4[16:1],,1-5[16:1]/7,,
1/7-3[16:1],,1>8[16:10]/7<8[16:10],,17,,17,,
,,,,,,,,
,,1h[16:1]/8h[16:1],,1v4[16:1]/8qq4[16:4],,45,,
8b/1b,,3<7[16:2]*p1[16:4],2,1,,3,,
,,8,,7v4[16:1]/4qq1[16:4],,15,,
74,,5qq8[16:4],6,7,,5/2-5[16:1],,
,,2,,8v5[16:1]/1pp5[16:4],,27,27,
18,,6>2[16:2]*q8[16:4],7,8,,6,,
,,1,,8v5[16:1]/4qq1[16:4],,26,,
48,,6,7,8-4[16:1],,26,,
1-3[16:1]/8-6[16:1],,4-2[16:1]/5-7[16:1],,8v5[16:1]/1pp5[16:4],,54,,
1b/8b,,6>2[16:2]*q8[16:4],7,8,,6,,
,,1,,2v5[16:1]/1qq6[16:4],,74,,
21,,4qq5[16:4]*-8[16:1],3,2,,4,,
,,7,,1v4[16:1]/8qq4[16:4],,72,72,
81,,3q7[16:2]*q5[16:4],2,1,,3,,
,,8w4[16:1],,8,17,8,,
6-3[16:1],2,8-3[16:1],4,6,,8,,
4-8[16:1],2h[16:1]/6h[16:1],,26,4/7,6,5/1-4[16:1],2,
37,,3/1b-6[16:1],,1/3,2,7/1b-4[16:1],,
37,,3/1b-6[16:1],,1/3,2,8-5[16:1]/1b,,
72,,6/8b-3[16:1],,8/6,7,2/8b-5[16:1],,
62,1,6/8b-3[16:1],,8/6,7,1-5[16:1]/8b,,
2,,1b/8-4[16:1],,3/6,7,1-5[16:1]/8b,2,
3/6,7,1b/8-4[16:1],7,3/6,2,1h[16:2]/8b,,
5,,{32}26,37,{16}48,8<5[16:1]/4,3,8>3[16:1]/4,5,
8p4[16:1]/4,2,8q4[16:1]/4,6,8b/4,2,8b/4,6,
8b/4qq1[16:10],,,,8h[16:2],,,,
7h[16:2],,,,6,,7,7,
7qq4[16:10]/2h[16:2],,,,3,,4,,
3,,2,,1-5[16:1],,8,,
1/7-3[16:1],,46,,7/2-5[16:1],,14,,
2/8-6[16:1],,74,,8/1-5[16:1],,5-8[16:1]/4,,
1-4[16:1]/8,,3/5-1[16:1],,71,6,54,3,
1/2-5[16:1],5/6-1[16:1],2-7[16:1]/3,6-3[16:1]/7,2b,6b,2b,6b,
2,2,2,2,2,2,3q4[16:4]/7,7,
7,7,7,7,7,7,7,7,
8/5,5,5,7/5,5,5,4/8,8,
8,8,8,8,7/4,4,6/4,4,
3/7,7,7,7,7,7,6p5[16:4]/2,2,
2,2,2,2,2,2,2,2,
1/4,4,4,3/4,4,4,5/1,1,
1/7-5[16:1],1/5-8[16:1],1/8-4[16:1],1/4-1[16:1],1,1,1,1,
E
