&title=テレパシ
&artist=DECO*27
&first=-0.23
&des=ホシノちゃん
&des_5=ホシノちゃん
&lv_5=13+
&inote_5=(205)
{4},,
{16},,2,6,4h[8:1],,8,,8/Ch[4:1],,,,E5,E4,E7,E2,8bxh[4:1],,,,,,8x,8x,
{12}1xh[12:1]/7xh[12:1],,3xh[12:1]/C,,6xh[12:1]/E5,,2xh[12:1]/B6,,8xh[12:1]/E4,,1xh[12:1]/C,,
{4}7-3[8:1],7/1-6[8:1]*-4[8:1],1w5[8:1]*-5[8:1],1<1[4:3]*>1[4:3],A8/D1/A1f/D2/A2,,,,
{4}3/7,B7/B3,2/6,B6/B2,
{4}A8/D1/A1,B6/C/B3,3/7,B7/C/B3,2/6,B6/C/B2,3/7,B7/C/B3,
{4}A8/D1/A1,B6/C/B3,2h/6h,B6/C/B2,3h/7h,B7/C/B3,2h/6h,B6/C/B2,
{4}A8/D1/A1,B6/C/B3/E4/E6,3h/7h,B7/C/B3/B1/B5,2h/6h,B6/C/B2/B4/B8,3h/7h,B7/C/B3/B1/B5,
{8}8x-6[8:1]*-3[8:1],,,,A1/D2,,6>3<6[2:1],6,,,,2,2h[4:1],,6,7,8-4[4:1],,4<7[4:1],3,2h[8:1],,1,8,,B2/B3/7,,A2/D3/7,,,8-6[8:1]*-3[8:1],,
{8},,A1/D2,,6v8[8:1],2v4[8:1],6,2,,,,7,6,5,4,3,2/1s5[4:1],,3,3h[8:1],,2V48-6[8:3],6,2,,5<1[4:1]*>1[4:1],,5,,,
{32}E1/E2,B8`B2,B7`B3,E7`E4,,,,,
{32}3xh[4:15],,,,,,,,7x,6x,5xv8[12:1],,,,,,,,,,,,,,7x,6x,5xv8[12:1],,,,,,,,,,,,,,7x,6x,5xv8[12:1],,7x,6x,5x,,,,,,,,,,7x,6x,5xv8[12:1],,,,,,,,,,,,,,7x,6x,5xv8[12:1],,,,,,,,,,,,,,7x,6x,5x,,,,,,,,,,7x,6x,5x,,,,,,7x,6x,5x-8b[16:3],,,,,,,,,,,,,,,,,,
{32}6xh[4:13],,,,,,,,2x,3x,4xv1[12:1],,,,,,,,,,,,,,2x,3x,4xv1[12:1],,,,,,,,,,,,,,2x,3x,4xv1[12:1],,2x,3x,4x,,,,,,,,,,2x,3x,4xv1[12:1],,,,,,,,,,,,,,2x,3x,4xv1[12:1],,,,,,,,,,,,,,2x,3x,4x,,,,,,,,,,2x,3x,4x,,2x,3x,4x,,2x,3x,4x/Cf,,,,,,,,,,
{4}8<5[8:1],8>3[8:1],8-5[8:1],8-3[8:1],8-4[8:1],8>3[8:1],8<5[8:1],8-4[8:1],8,
{4}5p4[2:1]/6<3[2:1],,,,6b<2v4[4:1],,,,
{8}2-7[2:1],,3,3,3,3,3,4,2-7[2:1],,3,3,3,3,4,5,2-7[2:1],2,3,3,4,4,5,
{8}4b-6[8:1]*-7[8:1],,4b>1[8:1],,4b,
{32}7x,6x,5x,4x,3x,2x,1x,8x,7x-4[8:1]/3x-8[8:1],,,,,,,,
{8}3b/7b,,1/5,,2/8,3/7,6<2[4:1],,2<6[4:1],4h[8:1],,3,3-8b[8:1],,3,,
{8}5-7[8:1],5,2,2,5-8[8:1],5,1,1,5-1[8:1],,2,,5-2[8:1],,3,,
{8}7x/8x,6,1/7,5,8/2,4,1/2,3,1/2,3,2/8,4,1/7,5,7/8,6,
{48}4x-2[8:1]/5x-1[8:1],B4/E6,C/E7,B8/A7,,,,,,,,,4/5,,,,,,,,,,,,
{8}3/8,4/7,5/6,,
{48}D6f/D2f,A2`A6,D3`D7,A3`A7,D4`D8,,,,,,,,E5f,B5/B4,C,B1/B8,E1,,,,,,,,
{32}2bxV84[8:3]/7bxV15[8:3],3/6,4/5,,,,,,,,,,,,,,
{8},,A4/D5f/A5,,1-4[8:1],,7,7,1-5[8:1],8,,8h[4:1],1-6[8:1],,,,
{8}2-4[8:1],2,1-5[8:1],1,8-4[8:1],8,7-5[8:1],7,2>7[4:1],,7<2[4:1],,8-4[8:1],,8/C,,
{8}3/4x,2,3/5,1,4/6,8,5/6,7,1/8-3[8:1],7,1<6[8:1]*>4[8:1]/8,2,1w5[8:1],,1/C,,
{8}2-7b[8:1],,3-6[8:1],,,,B7f/B6,,
{4}D2f/A2/D3,D8f/A7/D7,B2f/B3,C/E1/D1f,
{32}1bx/8bx,2bx/7bx,3bx/6bx,4bx<4b[32:45]/5bx>5b[32:45],D5f,,,,
{4},,,,,,,
{4}A8/D1/A1,B6/C/B3,3/7,B7/C/B3,2/6,B6/C/B2,3/7,B7/C/B3,
{4}A8/D1/A1,B6/C/B3,7h/3h,B3/C/B7,6h/2h,B2/C/B6,7h/3h,B3/C/B7,
{4}A8/D1/A1,B6/C/B3/E4/E6,6h/2h,B2/C/B6/B8/B4,7h/3h,B3/C/B7/B5/B1,6h/2h,B2/C/B6/B8/B4,
{4}1bxqq7qq5>2[2:3],,,,8h,,7h,,
{4}8pp2pp4<7[2:3],,,,1h,,2h,,
{4}3bxqq1qq7<4[2:3],,7h[16:3],,8h[4:3],,,,
{4}6pp8pp2>5[2:3],,2h[16:3],,1<5b[2:1],,,,
{16}2/6,,3,5,4>1[8:1]*-1[8:1],,C,,4-7-5[4:1],,,,4,,,,
{16}1,,2,7,1>4[8:1]*-4[8:1],,C,,1<6[8:1]*-6[8:1],,,,1,,,,
{8}2>5[8:1],,1/2,,6,3,2/7,1-3[8:1]/8-6[8:1],,1/8,,5v6[4:1]*v2[4:1],,,,,
{16}7/3,,6,4,5<8[8:1]*-8[8:1],,C,,5-2-4[4:1],,,,5,,,,
{16}8,,7,2,8<5[8:1]*-5[8:1],,C,,8>3[8:1]*-3[8:1],,,,8,,,,
{8}7<4[8:1],,8/7,,3,6,7/2,1-3[8:1]/8-6[8:1],,1/8,,5v6[4:1]*v2[4:1],,,,,
{24}2x,7x,2x,7x,2x,7x,2x,7x,2x,7x,2x,7x,2x,7x,2x,7x,2x,7x,2xv4[41#20:1]*<6[41#20:1],7x,2x,7x,2x,7x,
{1},,
{8}2-7b[2:1],,3,3,4,4,5,6,2-7b[2:1],,3,4,5,6,5,4,
{8}3x-6b[8:1],3x,2x-7b[8:1],2x,3x-6b[8:1],3x,2x,1x>2-7b[8:1],,3x-6b[8:1],,E1/B8/B1,,,1x,2x-7b[8:1],,
{16}2x/7x,6x,5xw1[8:3],,3x,,5b,,,,,,,,
{4}Chf[1:1]/D3/E3/A2/A3,,,,
{16}2x,8h,3xh,7b,4bh[1:0],6,3bxh[1:0],5bx,E4,B6/E7,B2,E8,D2/A2,D1,B3/A3,E5/D5,
{8}Chf[4:1]/5x-7[8:1],,,,5-8[8:1],5,2,3,4/5-1[8:1],,3,,4/5-2[8:1],,1,,
{8}7x/8x,6,1/7,5,8/2,4,1/2,3,1/2,3,2/8,4,1/7,5,7/8,6,
{8}1-5[8:1],8-6[8:1],1-3[8:1],8-4[8:1],1,8,B1/E2/D2,,
{32}8bx/E3,B3,B4,E5,,,,,1bx/E7,B6,B5,E5,,,,,Cf,,,,,,,,1w5[8:1],,,,,,,,
{16},,,,2bx/7bx,,,,D8/E8/B8/B1f/E2/D2,,,A3/D4/A4/A5/D6f/A6,,,E7f/B7/B6/B2/B3/E3/Chf[8:3],,,,,,E1/D1/E5/D5/B5/B4/B1/B8,,,,4x,,6x,,3x,,7x,,
{8}2-4[8:1],2,1-5[8:1],1,8-4[8:1],8,7-5[8:1],7,2>7[4:1],,7<2[4:1],,8-4[8:1],,8/C,,
{8}3/4x,2,3/5,1,4/6,8,5/6,7,1/8-3[8:1],7,1<6[8:1]*>4[8:1]/8,2,1w5[8:1],,1/C,,
{32}D7,E7,C,E3,D3,,,,
{96}2xs6[8:1],3xz7[8:1],,,,,,,,,,,,,,,,,,,,,,,,,,,,,,,,,,,,,,,,,,,,,,,B7f/B6,,,,,,,,,,,,,,,,,,,,,,,,
{4}D2f/A2/D3,D8f/A7/D7,B2f/B3,C/E1/D1f,
{32}1bx/8bx,2bx/7bx/E2/E8,3bx/6bx/E3/E7,4bx<4b[32:45]/5bx>5b[32:45]/E4/E6,D5f,,,,
{4},,,,,,,
{8}2-4<5[8:1],,2/1,8,2-5[8:1],,2/8,7<4[8:1],,7/8,,1,8/7-4[8:1],,7/C,,
{32}3bxh[8:11],,,,,,,,7x,6x,5xv8[12:1],,,,,,,,,,,,,,7x,6x,5x,,,,,,,,,,7x,6x,5x,,,,,,7x,6x,5xw1[16:3],,7x,6x,5x,,,,,,,,,,,,,,
{4}7h/3h,B3/C/B7,6h/2h,B2/C/B6,8<5[4:1],8/5>2[4:1],,,
{4}Chf[4:5],,,,,,
{32}4bx/5bx,3bxV14b[4:3]/6bxV85b[4:3],2bx/7bx,1bx/8bx,,,,,,,,,,,,,
{4},,,6x-3b[8:1]/7x-2b[8:1],
{48}D7f,E7f,B7f/B6f,Cf,B2f/B3f,E3f,D3f,,,,,,,,,,,,,,,,,,,,,,,,,,,,,,,,,,,,,,,,,,
{8}2-6[8:1]/7-1[8:1],,2v5[8:1]/7,,2/Cf,,6,4/7,3/8,3-5[8:1]/8-5[8:1],,3/8,,,1-3[8:1]/8-6[8:1],,1/8,,D2f,,2x-5[8:1]/B6/E7,,2x/E1f/B1,,
{4}1x-5[8:1],A6f/B6,2-7[8:1],2/8,
{32}D1f,E1f,Cf,E5f,D5f,,,,,,,,,,,,,,,,,,,,,,,,,,,,
{1},,,,,,
E
