&title=檄!帝国華撃団<新章>
&artist=佐倉綾音; 内田真礼; 山村響; 福原綾香; 早見沙織
&first=0.005
&des=Amia_糕
&lv_5=13
&inote_1=
&inote_5=(144)
{24},,,,,,,,,,,,,,,,
{16}8/2,,,5/6,,,3/5,,,7/8,,,1/2,,,
{12}7bqq4[7:11]/3bqq8[7:11],,,,
{16},,,,,,,,,,,,,,,,,,,,,,,,,,,,
{16}8/6,,,1/3h[16:19],,,,,,,4,,5,,6,,7,,,,,,8,,1-5[8:1],,,,1b,,,,,1/6,,,,2-5[8:1],,3,,2/8qq5[2:1],,,,8/3,,,,1,,2,,4>1[8:1],,3,,4,,,,,,,,
{16}8/3,,,,7-4[8:1],,6,,7/1pp4[2:1],,,,1/6,,,,8,,6,,5<8[8:1],,6,,5,,,,,,,,
{16}1-6[8:1]/2-5[8:1],,8/3,,1b/2b,,,,4,7,3,6,2,1/8,,,8>3[8:1]/7<4[8:1],,1/6,,7b/8b,,,,
{16}5,2,6,3,7,2/1,2/1,,8,,1,,2>6[6:1],,1,,8,,7<3[6:1],,8,,1,,2,,2,1,2,,7,8,7h[8:1],,,,
{16}4,,2,,8>3[8:1]/7h[4:1],,,,8,,
{16},,5-8[8:1],,4,,5,,,,1<6[8:1]/2h[4:1],,,,1,,,,4-8[8:1],,5,,4,,,,6<1[4:1],,,,
{16}1>4[4:1],,,,4<7[4:1],,,,7>2[4:1],,,,2<3[6:2],,,,,,,,,,,,
{16},4,,6,,8>3[8:1]/7h[4:1],,,,8,,
{16},,5-1[8:1],,7/3,,5,,,,1<6[8:1]/2h[4:1],,,,1,,4-1[8:1],,5-8[8:1],,4,,5,,,,
{8}8/4,7/3,6/2,5/1,8/4,,1<4[7:4]/5>8[7:4],4/8,1/5,,,,
{16},,,,
{16}5,,7,,1<6[8:1]/2h[4:1],,,,1,,
{16},,4-1[8:1],,5,,4,,,,8>3[8:1]/7h[4:1],,,,8,,,,5-1[8:1],,4,,5,,,,3-8[4:1],,,,
{16}3/8-5[4:1],,,,5-2[4:1],,,,2-7[4:1],,,,7>6[6:3],,,,,,,,,,,,,,,
{16}4,,2,,1,,8-5[8:1],,8,,8-3[8:1],,,,8,,,,5,,7,,1>4[8:1],,1,,1-5[8:1],,,,1,,,,6h[8:1]/3h[8:1],,,,,
{24},,,,
(72)
{12}8b/1b,7b/2b,6b/3b,5b<4[12:5]/4b>5[12:5],,,5b/4b,,
(144)
{16},,,,,,,,,,
{16},6h[2:3],,,,,,,,,,8,,1,,2,,3h[13:4],,,,,,,,
{8}1b,,5b<8[10:3]*>2[10:3],,5b,
{16},,,,,,1,8,1,7,2,6,2,5,3,6,4,7,
{16}1-5[8:1],,,,1b<6[8:1]*b>4[8:1],,,,1bw5[8:1],,,,1b,
{9},,,,
{16}7/1-5[8:1],,3,,8-3[6:1]/1,,7,,8/2-6[8:1],,,,2,,,,
{16}5-8[8:1],,,,5/4-1[8:1],,,,4b/7,,,,,,,8<5[8:1],,2-6[8:1]/7,,8-4[8:1],,2,,8,,5-1[8:1],,,,5,,,,8b-4[8:1]/7b-4[8:1],,,,8b/7b,,,,3b-1-4[6:1]*bpp4[6:1],,,,,,,
{16},7/8,,,,5/2,,7/4,,8-4[4:1]/1-5[4:1],,,,
{2},
{16}4-8[8:1]/6-2[8:1],,3/7,,6b/4b,,,,,,1>5[6:1],,7-4[8:1]/2,,1-5[8:1],,7,,1,,4b-8[1:1],,,,,,,,
{4},,,,
{16}7,8,1,,2qq5[2:1],,3,,6h[1:1]/2,,,,,,,,,,,,2,,,,
{32}4h[33:8],,,,,,,,,,,,
{24}6,,,7,,,8,,,1,,,2,,,
{32},2qq7[2:1]/6h[1:1],,,,,,,
{4},,,,,
{32},,3h[8:1],,,,
{16}2h[8:1],,1h[8:1],,8h[8:1],,7-4[8:1],,3h[8:1],,7pp3[3:1],,,,7,,,,,,,,
{16}6-3[8:1],,2h[8:1],,6pp2[3:1]*qq2[3:1],,,,6,,,
{16},,,,,4h[8:1],,,,5qq1[3:1],,6,,7h[8:6],,,,,,,,
{16}3-6[8:1],,,,3qq7[14:5],,,,,,,,,,,,
{48},
{16}8/6,,,1,2-5[8:1],,3,,2/8qq5[2:1],,,8,8/3,,1,,2,,3,,4>1[8:1],,2,3,4,,,,,,,,
{16}1/3,,,8,7<4[8:1],,6,,7/1pp4[2:1],,,1,1/6,,8,,7,,6,,5-8[8:1],,7,6,5,,,,,,,,
{16}1-5[8:1]/2-6[8:1],,4/3,,1b/2b,,,,7,4,2,5,7,4,,,8-4[8:1]/7-3[8:1],,6/5,,7b/8b,,,,
{16}4,7,5,2,4,7/8,7/8,,1,,8,,7<3[6:1],,8,,1,,2>6[6:1],,1,,8,,7,,7,8,7,,2,1,2h[16:2],,,,,
{16}5,6,7,8,1<6[8:1]/2h[4:1],,,,1,,
{16},,4-8[8:1],,5,,4,,,,8>3[8:1]/7h[4:1],,,,8,,,,5-1[8:1],,4,,5,,,,3-1-7[4:1],,,,7-5-3[4:1],,,,3-1-7[4:1],,,,7<8[6:3],,,,,,,,,,,,,,,,
{16}4,3,2,1,8>3[8:1]/7h[4:1],,,,8,,
{16},,5q1[8:1]*p1[8:1],,7/3,,5,,,,1<6[8:1]/2h[4:1],,,,1,,4-8[8:1],,5-1[8:1],,4,,5,,,,3>8[4:1],,3,,8<5[4:1],,8,,5>2[4:1],,,,2<7[4:1],,2,,7>6[6:2],,,,,,,,,,,,,
{16}7<4[8:1],3,2,1,8-3[8:1]/7,,,,8,,
{16},,5<8[8:1],,4,4,5,,,,1<6[8:1]/2h[4:1],,,,1,,,,4-8[8:1],,5,5,4,,,,6<2[4:1],,,,2>6[4:1],,,,6<2[4:1],,,,2<3[9:6],,,,,,,,,,,,,,,,,,
{16}4,4,2,,2,,8-5[8:1],,8,,8-6[8:1]*-4[8:1],,,,8,,,,5,5,7,,1-5[8:1],,1,,1-4[8:1]*<6[8:1],,,,1,,,,6h[8:1]/3h[8:1],,,,,
{24},,,,,
(72)
{12}5b/4b,6b/3b,7b/2b,8bqq5[12:5]/1bpp4[12:5],,,8b/1b,,
(144)
{16},,,,,,,,,,
{16},3h[2:3],,,,,,,,,,1,,8,,7,,6h[13:4],,,,,,,,
{8}8b,,4bw8[4:1],,4b,,,,
{16}8,2,8,4,8,6,8,2,6,2,4,2,
{16}8-4[8:1],,,,8bp2[8:1]*q6[8:1],,,,8bw4[8:1],,,,8b>7[3:3],,,,,,,,
{16}8,,8,,1,,2,,3-8[6:1],,,,3,,,,
{16}7-4[8:1],,,,7-1[8:1]/2-6[8:1],,,,7b/2b,,,,,,,8<4[6:1],,2-6[8:1]/7,,8-4[8:1],,2,,8,,5-1[8:1],,,,5,,,,8b>3[8:1]/6b-1[8:1],,,,8b<5[8:1]/6b,,,,8b/3b-1-4[6:1]*pp4[6:1],,,,,,,
{16},7,,6/8,,4/2,,3,,8p6[3:1]/1q3[3:1],,,,
{2},
{16}4-1[8:1]/6-2[8:1],,5/7,,6b/4b,,,,,,1>5[6:1],,7-3[8:1]/2,,1-5[8:1],,7,,1,,4-8[8:1],,,,4,,,,
{16}1b-6[8:1],,,,8bq1[3:1]/1b>8[3:1],,,,8b/1b,,,,,,,,
{16}1/5,,3/7,,8v6[8:1]/4v2[8:1],,7/3,,8b/4b,,,,,,,,
{16}5bq1[8:1]/1bq5[8:1],,,,1b<6[8:1]/5b>2[8:1],,,,1b/5b,,,,,,,
{16}1>5[6:1],,7-3[8:1]/2,,6/1-5[8:1],,7,,1,,4-7[8:1]/4-1[8:1],,,,4,,,,
{16}8bp4[8:1]/4bp8[8:1],,,,8b-2-4[5:1]/4b-6-8[5:1],,,,8b/4b,,,,,,,
{16},4,,6/3,,7pp4[2:1]/2,,1,,7/2h[16:8],,,,
{16},,,,,,,,
{16}5<4[8:4]/4>5[8:4],,6/3,,5b/4b,,,,,,,,,,,,
(72)
{16}8b/1b,,7b/2b,,,6b/3b,7b<2[12:10]/2b>7[12:10],,5b/4b,,,,
{26},,,,,,,,,,,,,,,,,,,,,,,
(144)
{16}1/7,,,4/3,,,6/4,,,2/6,,{24}2/6,7/3,8/4,1qq6[7:5]/5qq2[7:5],,,1b/5b,,,,,,,,
{72},,,
{16},,,,,,,,,,,8/4,,,2-5[4:1]/6-1[4:1],,,,,,,,,,,,,,
{16}8/4,,2/6,,,,1/5,,7/3,,,,8b/1b,,7b/2b,,
