&title=響け!ギャラクシー☆カーニヴァル!!
&artist=ゆうら
&first=0
&des=羽の華 vs 弦巻マキ
&lv_5=13+
&inote_5=(184)
{1},7pp2b[8:7],,,
{4}7v2b[4:5],,E6,,
{4}E5,,E4,,
{4}1-4[4:1],4-7[4:1],7-2[4:1],2-5[4:1],
{4}5-1[4:1],1-4[4:1],4,7,
{12}3b,4b,3b,4b,,,7b,8b,7b,8b,,,
{12}1b,7b,2b,6b,3b,5b,4b-8[16:1],,,,,,
{16}25,,3,4,3,,3,5,3,,6,,7,,8h[8:8],,
{16}1,,2,,3,,4xhb[2:1],,,,,,,,,,
{16}74,,6,5,6,,6,4,6,,3,,2,,1,,
{16}82,,73,,64,,5w1[16:3],,,,,,,,,,
{8}18,18,18,18,18,2,18,7,
{16}18,,2<5[4:1],,,,5qq5[4:1]*pp5[4:1],,5,,,,,,,,
{8}6h[8:1]/5h[8:1],,5h[8:1]/4h[8:1],,3h[8:1]/4h[8:1],,4h[8:1]/5h[8:1],,
{8}6h[8:1]/5h[8:1],,5h[8:1]/4h[8:1],,3xqq3[4:1]/4xh[8:1],,5xh[8:1],,
{8}8-4[8:1],,5-1[8:1],,8-4[8:1],,5-1[8:1],,
{8}8-4[8:1],,5-1[8:1],,8xh,8xh,8xh,,
{8}8h[8:1]/6h[8:1],,7h[8:1]/5h[8:1],,1h[8:1]/6h[8:1],,8h[8:1]/4h[8:1],,
{8}2h[8:1]/5h[8:1],,1h[8:1]/3h[8:1],,2xh[8:1]/5xpp5[4:1],,1xh[8:1],,
{8}1-5[8:1],,4-8[8:1],,1-5[8:1],,4-8[8:1],,
{8}1-5[8:1],,4-8[8:1],,1xh,1xh,1xh,,
{4}2bhb[4:1]/3V15b[4:1],,2q3[4:1],,
{32}5bv8b[8:1],,,,,,,,,B5,C,B2,A2,,,,3p2[4:1]*p2[4:1],,,,,,,,,,,,,,,,
{4}5qq3[16:3],2p6[8:1],7>1[12:1],4-2[8:1]*-1[8:1],
{8}4-6[8:1]*-7[8:1],,4w8[8:1],,4,,2b/6b,,
{8}4,4h[8:5],6q3>7[16:6],6,,,,,
{8}2,2,5<3[16:4],5h[8:3],,,,,
{8}6,6h[8:5],3>7V13[16:6],3,,,,,
{8}7,7,4>6[16:4],4h[8:3],,,,,
{8}8bq5[4:1]*>5[4:1]/1b,,,,,8b/7b,8b/7b,,
{8}1bp4b[16:3]/8b<5b[16:3],,,,,1b/2b,1b/2b,,
{8}2pp4[16:3],2,5,6,7>1[8:1],7,5,5,
{8}4qq4[16:6],4pp4[16:6],4,,,,,,
{4}2-7[8:1]/6-3[8:1],26,1>4[8:1]/5<8[8:1],5-1-5-2-5-3b[2:1]/1,
{8}8,8,8,8,8w4[8:1],,8`Cf,,
{16}1-5[8:1],,,5,1,,6,,8-4[8:1],,,4,8,,3,,
{4}2-5[8:1]/5-2[8:1],2V48[4:1]/5V38[4:1],5x/2x,,
{4}6-1[8:1]/1,3-8[8:1],7-4[8:1],1-5[8:1],
{8}1b/5b-3[8:1],7b,1b-4[8:1],,1b/5b-2[8:1],7b,1b,,
{16}8-4[8:1],,,4,8,,3,,1-5[8:1],,,5,1,,6,,
{4}8-4[8:1]/7-4[8:1],8V62[4:1]/7-2[4:1],87,,
{4}2q7[6:1],7>4[4:1],5-1[8:1],5,
{32}3-8[8:1]/8,,,,7,,,,63,,,,5,,,,1,2,3,4,5,6,7,8,1b/Cf,,,,,,,,
{16}2h[16:3]/7,,8,,7h[16:3],,1,,3h[16:3],,8,,6h[16:3],,1,,
{8}3>1[8:1],1<7[8:1],7<5[8:1],5>3[8:1],,8,8,,
{16}7h[16:3]/2,,1,,2h[16:3],,8,,6h[16:3],,1,,3h[16:3],,8,,
{8}6>3[8:1],8,1s5b[4:1],2,4b,6b,8b,,
{16}2h[16:3]/7,,8,,7h[16:3],,1,,3h[16:3],,8,,6h[16:3],,1,,
{8}2-6[8:1],5,6,7,8-4[8:1]/5-2[8:1],85,85,,
{16}15,,,6,6,,57,,84,,,3,3,,24,,
{16}1,5,1,5,1,5,1,5,2,6,2,6,2,6,2,6,
{12}1b,7b,1b,7b,,,5b,3b,5b,3b,,,
{12}4b,5b,3b,6b,2b,7b,1xb-4[8:1]/8xb-5[8:1],,,18,,,
{16}3h[4:1],,,4,,,25,,6h[4:1],,,5,,,74,,
{4}3>1[8:1],6<8b[8:1],3>1[8:1],6,
{16}6h[4:1],,,5,,,74,,3h[4:1],,,4,,,25,,
{4}6<8b[8:1],3>1[8:1],6<8b[8:1],3,
{16}2h[4:1],,,1,,,38,,7h[4:1],,,8,,,61,,
{4}3>1[8:1]*>1[8:1],6<8b[8:1],3>1[8:1]*>1[8:1]`A7,6,
{16}7h[4:1],,,8,,,61,,2h[4:1],,,1,,,38,,
{1}2v4[2:1]/6<2[2:1],
{16}3qq4[16:6],,,,,,,,,,5pp4[16:6],,,,,,
{16},,,,3qq5[16:6],,,,,,,,,,6pp5[16:6],,
{16},,,,,,,,4qq5[16:6],,,,,,,,
{16},,6pp5[16:6],,,,,,,,,,3qq4[16:6],,,,
{16},,,,,,6pp4[16:6],,,,,,,,,,
{8}2h[8:1],5,2h[8:1],6,2h[8:1],7,2h[8:1],8,
{8}1xb,1xb,1xb-5-1<8b[4:1],,1b,,,,
{8}7h[8:1],4,7h[8:1],3,7h[8:1],2,7h[8:1],1,
{8}8xb,8xb,8xb-4-8<7b[4:1],,8b,,,,
{4}7-5b[8:1],8-4b[8:1],1-3b[8:1],1,
{8}28,35,17,46,1w5b[8:1]/8,,1`Cf,,
{16}8p4[8:1],,,5,8,,3,,1q5[8:1],,,4,1,,6,,
{4}8-4[8:1]/4-8[8:1],8-2-6[16:5]/4-1-6[16:5],4x/8x,,
{4}3q8[8:1]/8,6p1[8:1],2p5[8:1],8-4[8:1],
{8}8b>3b[8:1]/4b<7[8:1],2b,8b-5[8:1],,8b>4b[8:1]/4b<8[8:1],2b,8b,,
{16}5p1[8:1],,,8,5,,6,,4q8[8:1],,,1,4,,3,,
{4}1-5[8:1]/5-1[8:1],5-8-3[16:5]/1-6-3[16:5],5x/1x,,
{4}5V71[4:1],1<5[4:1],4>1[8:1],4,
{32}8-4[8:1]/6,,,,1,,,,28,,,,3,,,,5-1[8:1],6,7,8,1,2,3,4,5b/Cf,,,,,,,,
{8}2>5[8:1],2,7-4[8:1],7,3-7[8:1],3,5<8[8:1],5,
{8}1>4[8:1],1,7-3[8:1],7,5-1[8:1],5,6<1[8:1],6,
{8}2>5[8:1],2,7-4[8:1],7,3-8[8:1],3,5,5,
{8}1bw5[8:1],7b/3b,1b,,8bw4b[8:1],6b/2b,8,,
{8}2-5b[8:1],2,1-6b[8:1],1,2-5b[8:1],2,8-5b[8:1],8,
{8}1-4b[8:1],1,8-5b[8:1],8,1-4b[8:1],1,7-4b[8:1],7,
{8}8-3b[8:1],8,7-4b[8:1],7,8-3b[8:1],8,7,7,
{8}26,15,84,37,{32}8/4h[2:1],1,2,3,,5,6,7,8,1,2,3,,5,6,7,
{8}8w4b[16:1],,{64}8b,,Cf/B7/B5/B1/B3,,,,,,,,,,,,,,{4}5<8[8:1]*>2[8:1],5,
{8}7>1b[8:1],1>3[8:1],3<5b[8:1],5<7[8:1],,1b,1b,,
{16}27,,7,8,7,,2,1,2,,7,8,6,,2v3-5[4:1],,
{8}5,6,7v6-4b[4:1],8,4b,2b,8b,,
{16}18,,2,4,3,,7,5,6,,1,4,3,,7qq8[4:1],,
{8}1,2,3,4,{24}1x,2x,3x,4x,5x,6x,7x/1x,,,,,,
{16}2>5[8:1]/5,,,6,2,,7,,8<5[8:1],,,4,8,,3,,
{8}2-4[8:1],2,7-5[8:1],7,1-3[8:1],1,8-6[8:1],8,
{4}2-7b[4:1],7-4b[4:1],4-1b[4:1],1-5b[4:1],
{4}5-2b[4:1],2-7b[4:1],7,4,
{16}15,,,6,6,,57,,84,,,3,3,,24,,
{16}1,5,1,5,1,5,1,5,{24}2,6,2,6,2,6,2,6,2,6,2,6,
{1}2-6[4:5],
{16},,,,,,,,,,B8,C,B4,,,,
{16}38,,2,1,2,,2,8,2,,2,7,2,,6,,
{8}6-3[8:1],6,2-7[8:1],2,6-1[8:1],6,2,2,
{16}3h[16:3],,1,,4h[16:3],,1,,5h[4:1],,8,,6h[4:1],,8,,
{8}8>5[4:1],7pp4[16:6],8,7,,,,,
{16}16,,7,8,7,,7,1,7,,7,2,7,,3,,
{8}37,3,36,3,35,3,{32}35,6,7,8,1,2,3,4,
{8}5h[8:5],,3q6b[16:5],,3,,,8-4[8:1],
{8},8,,3>8[8:1]/5<8[8:1],35,,,,
{24}8xhb[4:1]/7xb,6x,5xb,4x,3xb,2x,1xb,,,,,,1xhb[4:1]/2xb,3x,4xb,5x,6xb,7x,8xb,,,,,,
{24}2xb,3x,4xb,6x,7xb,8x,1xb,2x,3xb,5x,6xb,7x,1xb>5[8:1]*<5[8:1]/8xb,,,,,,1q4-7[1:3]*-6p2-7[1:3],,,,,,
