&title=Rainbow Night Sky Highway
&artist=Sakuzyo
&first=0
&des=Dororo
&lv_5=14
&inote_5=(174)
{16}
,,,,,,,,,,,,,,,,
1-5[8:1],,,,1b<2[1:6],,,,,,,,,,,,
,,,,,,,,,,,,,,,,
,,,,,,,,,,,,,,,,
,,,,,,,,,,,,,,,,
,,,,,,,,,,,,,,,,
,,,,,,,,,,,,,,,,
8h[8:11],,,,,,,,,,,,,,,,
1h[8:3],,,,,,,,1-4[8:1]/8-5[8:1],,18,,,,,,
3,,3,,4,,2,5,3,4,3,,5,,4,5,
4,,6,,5,,3,4,3,,5,,2,,2,3,
4,,4,,5,,3,4,2,5,2,,4,,3,5,
3,,6,,4,,3,4,5,,6,5,4,,3,4,
5,,3,,4,,2,5,3,4,3,,5,,2,4,
3,,3,,4,,5,4,5,,3,,2,,2,3,
4,,4,,6,,4,5,3,4,3,,5,,6,4,
6,,3,5,3,,4,2,4,,1,8,7,6,5,,
6,,6,,5,,7,4,6,5,6,,4,,5,4,
5,,3,,4,,6,5,6,,4,,7,,7,6,
5,,5,,4,,6,5,7,4,7,,5,,6,4,
6,,3,,5,,6,5,4,,3,4,5,,6,5,
4,,6,,5,,7,4,6,5,6,,4,,7,5,
6,,6,,5,,4,5,4,,6,,7,,18,,
3,4,,6,5,,45,,{24}3,4,5,{16}6,,8,1,7,2h[16:13],
7h[4:3],,,,,,,,,,,,,,,,
34,,5,,6,,2,1,2,1,38,,2,,7,6,
53,,2,,1,,7,8,7,1,28,,3,,8,7,
65,,4,,3,,2,1,2,8,12,,3,,3,4,
57,,4,,35,,6,5,42,,5,,46,,7,6,
54,,3,,2,,8,1,7,8,17,,6,,2,3,
46,,7,,8,,2,1,3,1,28,,3,,6,5,
43,,2,,1,,7,8,6,1,78,,6,,1,2,
35,,6,,7,,8,2,1,2,38,,12,,12,,
65,,4,,3,,7,8,7,8,61,,7,,2,3,
46,,7,,8,,2,1,2,8,71,,6,,1,2,
34,,5,,6,,7,8,7,1,87,,6,,6,5,
42,,5,,64,,3,4,57,,4,,53,,2,3,
45,,6,,7,,1,8,2,1,82,,3,,7,6,
53,,2,,1,,7,8,6,8,71,,6,,3,4,
56,,7,,8,,2,1,3,8,21,,3,,8,7,
6/2^5[4:1],,,,5^8[4:1],,,,8^3[4:1],,,,3,,4,,
5,,5-8[8:1],,,,,,4-1[8:1],,,,,,8,,
8,,1,,2,,7,5,6,4,5,,3,,2,,
1,,1^4[8:1],,,,1^6[8:1],,,,{24}5,4,3,{16}2,,37,,
,,1,1,8,,2,4,3,5,4,,6,,7,,
5,,4-1[8:1],,,,,,5-8[8:1],,,,,,{24}3,4,5,
{16}6,,18,18,2-5[8:1]/7-4[8:1],,,,2b/7b,,,,18,,,,
7,,5,,3,,1,1,28,,,,5/6-2[4:3],,3-8[8:5]/4,,
,,,,,,,,,,,,,,,,
1,,2,,78,,1,,28,,,,1,,1,8,
72,,8,,13,,8,7,6,,2,3,4,,8,,
17,,8,7,{24}8,1,2,7,8,1,{16}2,,4,,6,5,6,5,
4,,7,6,,3,4,,35,,{32}2,1,8,7,{16}6,,7,8,
7,,4,5,,2,1,,3,,24,,5,,6,6,
8,7,8,7,1,8,1,8,2,,13,,3,4,56,,
7,5,6,4,6,5,3,4,25,,25,,{32}1,2,3,4,{16}6,6,
5,7,,7,8,,1,,{24}18,27,36,{16}45,,6,,6,7,
8,,17,,2,,8,,17,,2,,2,3,,5,
4,,7,5,6,6,6,6,6,,4,,5,,34,,
2,1,2,1,{24}3,4,5,4,5,6,{16}7,,2,,3,4,3,4,
5,,2,3,,6,5,,46,,{32}7,8,1,2,{16}3,,2,1,
2,,5,4,,7,8,,6,5,5,5,5,,3,3,
1,2,1,2,8,1,7,8,7,,6,5,4,,4,,
5,,56,,4,4,5,3,,1,8,,{32}8,7,6,5,{16}3,3,
8,1,7,2,8,3,6,1,7,2,8,1,7b,,,,
43,,5,,6,,7,6,51,4,3,,1,,2,3,
46,,5,,6,,8,1,26,3,4,,5,,6,5,
42,,3,,2,,6,7,85,4,3,,1,,1,8,
75,,6,,3,,1,2,34,,5,,7,,8,7,
56,,4,,3,,2,3,48,5,6,,8,,7,6,
53,,4,,3,,1,8,73,6,5,,4,,3,4,
57,,6,,7,,3,2,14,5,6,,8,,8,1,
24,,3,,46,,8,7,65,,4,,42,,1,2,
36,,7,,8,,18,2,35,6,7,,78,,1,2,
53,,4,,56,,6,7,58,,34,,5,5,5,5,
5,,4^1[8:1],,,,,,5^8[8:1],,,,{24}1,2,3,{16}4,,
,,8,8,1-4[8:1]/7-4[8:1],,,,1b/7b,,,,3,4,3,2,
3-8[8:1],,,,4-7[8:1]/3,,,,5-2[8:1]/4,,,,6-1[8:1]/5,,,,
7-4[8:1]/6,,,,8-3[8:1]/7,,,,1-6[8:1]/8,,,,2-5[8:1]/1,,,,
28,,8,,8,,8,,8,1,8,1,8,1,8,1,
{32}27,6,5,4,3,2,1,8,{16}73,,73,,,,15,,1-4[8:1]/5-8[8:1],,,,
,,,,,,,,,,,,,,,,
,,,,,,,,,,,,,,,,
,,,,,,,,,,,,,,,,
,,,,,,,,,,,,,,,,
,,,,,,,,,,,,,,,,
,,,,,,,,,,,,,,,,
,,,,,,,,,,,,,,,,
,,,,,,,,,,,,,,,,
,,,,,,,,,,,,,,,,
,,,,,,,,,,,,,,,,
,,,,,,,,,,,,,,,,
E
