&title=Undying Macula
&artist=Ashrount
&first=0
&des=Zephyr
&clock_count=6
&lv_5=14+
&lv_7=SP
&inote_5=(189){1},,,
{8}2>5[63#8:1]/6,,,,,,B6/B7,,,,6,6,5<1[63#6:1]/7h[8:3],,,4h[4:1],,,2/5,,3,,4,,
{8}3/8<5[63#6:1],,,,,,B3/B4,,,,3,3,4-2p6[63#6:1]/2h[8:3],,,5h[4:1],,,5/4,,6,,7,,
{16}5b/8bqq4[63#24:3],,,,,,3/4-6<1[63#24:3],,,,,,2h[8:3]/8,,,,
{16},,,,2,,3,,4>1[63#12:1],,,,,,5/6,,7-3[63#12:1],,,,4b,,,,6,,,,7,,,,
{1}Chf[4:3],
{4},{16}3/4,,2,,5<8[63#12:1],,,,,,3/4,,,,,,2/5,,,,3,,,,4/8,,,,
{1}1bp4-2-8[63#12:3]/5bp8-6-4[63#12:3],{4},,,
{16}B2,B3,B4,B5,B6,B7,B8,B1,E3,E4,E5,E6,E7,E8,E1,E2,Chf[4:1],,,,
{16}1h[4:1],,,,3,,3h[4:1],,,,2,,2-6b[63#24:1],,,,
{16}4v1-3-8[63#6:1]*v7-5-8[63#6:1],,1/7,,4,,,,2b,,,,,,,,{4},A8f,
{16}2,3,4,5,6,7,8,1,
{16}2/8h[4:1],,,,6,,6h[4:1],,,,7,,7-3b[63#24:1],,,,
{16}5v8-6-1[63#6:1]*v2-4-1[63#6:1],,8/2,,5,,,,7b,,,,,,,,{4},A1f,
{16}8,7,6,5,4,3,2,1,
{16}3b/8,,,,7,5,6,5,6,,3,4,2h[8:1],,8,1,
{16}7h[8:1],,5,5,6h[8:1],,,,2b/4,,,,6,5,7h[8:1],,
{16}3,4,2h[8:1],,8,1,7h[8:1],,4,5,3h[8:1],,6,,7,,
{16}1b/8,,1,,1/7,,1,,1/6h[8:1],,,,3/5,,5,,
{16}2,5,3,6,4,7,5,8,{4}4w8b[63#12:1],,,,,{32}1/7,2/6,3/5,4,,,,,
{16}1b/7b-3[63#24:1],,,,5,4,6,3,5,4,6,3,{4}7b,
{16}1-5[63#24:1],,,,3,4,2,,6,5,7,,1/8,,,,
{16}7x/8x,,1,,{32}1b/6,2,3,4,,,,,B7/E7f,B6,B5,E5,,,,,{16}2,,1,,
{16}2b-6[63#24:1],,,,{24}8<5[63#24:1],7,8,7,,,{16}1,,7,,2b,,,,
{16}8,,,,4,3,2/1,8,7-5[63#24:1],,3,,2/8-4[63#24:1]*-4[63#24:1],,4,5,
{16}1-3b[63#24:1],,,,7b<7[63#6:1],,,,8b,,,,1b,,,,
{16}Cf,,,,,,,,,,,,1b/6b,,3,4,
{16}3,,6,5,6,,{24}1/8,2/7,3/6,
{8}4b-8[63#24:1]/5b-1b[63#24:1],{16}1b>8b[63#24:3]/8b<1[63#24:3],,,,2/7,,
{16}2/7,,,,4b/5b,,,,{2},
{16}3h[8:1]/4h[8:1],,,2h[8:1]/5h[8:1],,,1/6,,1/6,,C,,3,4,3,6,5,6,3,4,2,6,5,7,
{16}1h[4:1],,8,,8,,8,,1,,1,,1-5[63#24:1],,
{16}7,8,6,1,5,2,4,3,,,
{16}1b/6b<1[63#24:1],,,,{24}E7f/B7,B6,B5,E5,,,{16}3b/4bx,,,,2/6,,3,,
{16}4/8xV24[63#24:1],,,,5x,,5h[8:1],,6,,6h[8:1],,8bV64[63#24:1],,,,
{16}3x,,3h[8:1],,2,,2h[8:1],,8b,,,,1-6[63#24:1],,,,
{16}2/4,,,,4/6,,3h[8:1],,1b,,,,4/5,,3/6,,2V86[63#24:1]/7,,,,3,4,3,,
{16}6,5,6,,2b/4<5-7[63#24:1],,,,
{16}4>3-1[63#24:1]*>3-1[63#24:1],,3,5,4z8b[63#12:1]*s8b[63#12:1],,,,4b,,,,4b,,,,
{16}4b,,,,,,,,{24}8b,1/7,2/6,3/5,4,,{16}6,5,6,,
{16}4b/7b-1[63#24:1],,,,3,3,5,,6,6,4,,2b-6[63#24:1]/7b,,,,
{16}6,5,6,,4,5,3,,2b/8b,,,,5h[8:1]/7h[8:1],,,,
{1}Ch[2:3],{2},8-4[63#6:1],{1},
{24}1b,2,3,4h[8:1],,,,,,2b,3,4,5h[8:1],,,,,,3b,4,5,6h[8:1],,,
{16}7,1,8,2,1,,2h[8:1],,
{24}8b,7,6,5h[8:1],,,,,,7b,6,5,4h[8:1],,,,,,6b,5,4,3h[8:1],,,
{16},2h[8:1]/4h[8:1],,,1/5,,,,
{16}7/8-4[63#24:1],,,,6,,5/6,,,,8,,1/8,,1,2,3b,,4,4,2b,,5,5,7b,,,1b/8b,,,2b/7b,,
{16}Ch[8:1],,,,{24}6b,5,6,5,7,,3b,4,3,4,2,,1b/8b,,,,,,
{16}1-5[63#24:1]/8,,,,2,4,3,,7,5,6,,1V75[63#24:1],,,,
{16}7-3[63#24:1],,4,4,5,,2,4,1,,,,7,,,,
{16}2b/4b,,,,{32}1/5,2/6,3/7,4h[8:1]/8h[8:1],,,,,
{32}3/7,2/6,1h[32:5]/5h[32:5],,,,,,2/6,3/7,4/8,1/5,,,,,
{16}4bx/8bx,,7,,6,,1b/5b,,2,,3,,4b/7b,,,,2b/5b,,,,1,8,1,8,
{24}1b,2,3/8b,7,6/2b,3,4/7b,6,5/1b,2,3/8b,7,6/2b,3,4/7b,6,5/1b,2,
{48}3/E8f,B7,E7,B6,E6,B5,E5,B4,E4,B3,E3,B2,
{32}E2,B1,E1,B8,E8,B7,E7,B6,
{16}E6,B5,E5,B4,E4,B3,E3,B2,
{8}E2,B1,E1,B8,E8,,{2}C,
{8}2>5[63#8:1]/6,,,,,,B6/B7,,,,6,6,5<1[63#6:1]/7h[8:3],,,4h[4:1],,,2/5,,3,,4bh[4:1],,
{8}8<5[63#6:1],,,,,,B3/B4,,,,3,3,4-2p6[63#6:1]/2h[8:3],,,5h[4:1],,,5/4,,6,,7,,
{16}5b/8bqq4[63#24:3],,,,,,3/4-6<1[63#24:3],,,,,,2h[8:3]/8,,,,
{16},,,,2,,3,,4>1[63#12:1],,,,,,5/6,,7-3[63#12:1],,,,4b,,,,6,,,,7,,,,
{1}Chf[4:3],
{4},{16}3/4,,2,,5<8[63#12:1],,,,,,3/4,,,,,,2/5,,,,3,,,,4/8,,,,
{4}8bh[1:6]/4b,,,5,,,
{8}6,,,7,,,1,,,2,,,
{4}3,4,5,6,7,1,
{16}2,,,3,,,4,,,5,,,6,,,7,,,1,,,2,,,
{8}3,4,5,6,7,8,
{32}1,,,2,,,3,,,4,,,5,,,6,,,7,,,8,,,
{12}1,2,3,4,5,6,
{16}7,8,1,2,3,4,5,6,
{24}7,8,1,2,3,4,5,6,7,8,1,2,
{32}3/6b,5,4,3,2,1,8,7,6,5,4,3,2,1,8,7,
{32}6,5,4,3,2,1,8,7,6,5,4,3,2,1,8,7,6,5,4,3,2,1,8,7,6,5,4,3,2,1,8,7,
{4}2b-6[63#12:1]/6b,,,C,{8},8h[4:1],,,2h[4:1]/Ch[4:5],,,3h[8:7],,,E7,,E8,,E1,,
{8}7h[4:1]/Ch[4:5],,,6h[8:7],,,E3,,E2,,E1,,
{8}2h[4:1]/Ch[4:5],,,3h[8:7],,,E7/B6,,E8/B7,,E1/B8,,
{8}7h[4:1]/Ch[4:5],,,6h[8:7],,,E3/B3,,E2/B2,,E1/B1,,
{8}1/5,,2h[1:1],Ch[8:7],,,B3/E4,,B7/B6,,B2/E2,,
{8}8/4,,7h[1:1],Ch[8:7],,,B6/E6,,B2/B3,,B7/E8,,
{8}1/5,,2h[2:1],Ch[8:7],,,B3/E4,,B7/B6/1h[2:1],,B2/B3,,
{16}8,,8,,1,,1,,{24}8b,1,2,3,4,5,{16}6>3[63#24:1]/1b,,,,
{4}3b/B8/B7/Cf,7b/B3/B4/Cf,{8}2b/6b,1,{16}3,4,2h[8:1],,
{16}7,5,6h[8:1],,1-5[63#24:1],,4,2,2-4[63#24:1]*-4[63#24:1],,6,7,8-6b[63#24:1],,,,
{4}1b,2b,8b,2/5,{24}3,4,3,4,3,4,{16}2b-6[63#24:1],,,,1/8-4b[63#24:1],,7,5,6,,3/4,,
{16}1/2,,,,8,,,,1h[8:1],,,,{32}1/4,2/5,3/6,4/7,5/8,,,,
{16}4b/7b,,2,1,2,,8h[4:1],,{32}1,2,3,4,,,,,{16}5b/7,,,,2/4b,,,,1b/8,,,,
{32}1b>8[63#6:4]/8b<1[63#6:4],2b/7b,3b/6b,4b/5b,,,,,{4},{1},,{2},
{16}4b,5,4,5,3b,6,3,6,2b,7,2,7,1b,8,1,8,
{16}1b,8,2b,7,1b,8,2b,7,
{4}1bh[2:3],,,,,,6h[4:3],,5,5h[4:3],,4,4h[4:3],,3,3h[4:3],,
{4}4,5h[4:3],,3,4h[4:3],,5,6h[4:3],,4,5h[4:3],,,
{4}6h[4:3],,5,5h[4:3],,4,4h[4:3],,3,3h[4:3],,
{4}4,5h[4:3],,3,4h[4:3],,5,6h[4:3],,4,5h[4:5],,,,,{1},
E
&inote_7=(189){1},,,
{8}2>5[63#8:1]/6,,,,,,B6/B7,,,,6,6,5<1[63#6:1]/7h[8:3],,,4h[4:1],,,2/5,,3,,4,,
{8}3/8<5[63#6:1],,,,,,B3/B4,,,,3,3,4-2p6[63#6:1]/2h[8:3],,,5h[4:1],,,
{8}5/4,,6,,7,,
{16}5b/8bqq4[63#24:3],,,,,,3/4-6<1[63#24:3],,,,,,2h[8:3]/8,,,,
{16},,,,2,,3,,4>1[63#12:1],,,,,,5/6,,7-3[63#12:1],,,,4b,,,,6,,,,7,,,,
{1}Chf[4:3]c,
{4},{16}3/4,,2,,5<8[63#12:1],,,,,,3/4,,,,,,2/5,,,,3,,,,4/8,,,,
{1}1bp4-2-8[63#12:3]/5bp8-6-4[63#12:3],{4},,,
{32}B2,,B3,,B4,,B5,,B6,,B7,,B8,,B1,,
{32}E3,,E4,,E5,,E6,,E7,,E8,,E1,,E2,,
{64}Chf[4:1]c,,,,,,,,,,,,,,,,
{16}1h[4:1],,,,3,,3h[4:1],,,,2,,2-6b[63#24:1],,,,
{16}4v1-3-8[63#6:1]*v7-5-8[63#6:1],,1/7,,4,,,,2b,,,,,,,,{4},A8f,
{16}2,3,4,5,6,7,8,1,
{16}2/8h[4:1],,,,6,,6h[4:1],,,,7,,7-3b[63#24:1],,,,
{16}5v8-6-1[63#6:1]*v2-4-1[63#6:1],,8/2,,5,,,,7b,,,,,,,,{4},A1f,
{16}8,7,6,5,4,3,2,1,
{16}3b/8,,,,7,5,6,5,6,,3,4,2h[8:1],,8,1,
{16}7h[8:1],,5,5,6h[8:1],,,,2b/4,,,,6,5,7h[8:1],,
{16}3,4,2h[8:1],,8,1,7h[8:1],,4,5,3h[8:1],,6,,7,,
{16}1b/8,,1,,1/7,,1,,1/6h[8:1],,,,3/5,,5,,
{16}2,5,3,6,4,7,5,8,{4}4w8b[63#12:1],,,,,{32}1/7,2/6,3/5,4,,,,,
{16}1b/7b-3[63#24:1],,,,5,4,6,3,5,4,6,3,{4}7b,
{16}1-5[63#24:1],,,,3,4,2,,6,5,7,,1/8,,,,
{16}7x/8x,,1,,{32}1b/6,2,3,4,,,,,B7/E7f,B6,B5,E5,,,,,{16}2,,1,,
{16}2b-6[63#24:1],,,,{24}8<5[63#24:1],7,8,7,,,{16}1,,7,,2b,,,,
{16}8,,,,4,3,2/1,8,7-5[63#24:1],,3,,2/8-4[63#24:1]*-4[63#24:1],,4,5,
{16}1-3b[63#24:1],,,,7b<7c[63#6:1],,,,8b,,,,1b,,,,
{16}Cfc,,,,,,,,
{16},,,,1b/6b,,3,4,
{16}3,,6,5,6,,{24}1/8,2/7,3/6,
{8}4b-8[63#24:1]/5b-1b[63#24:1],{16}1b>8b[63#24:3]/8b<1[63#24:3],,,,2/7,,
{16}2/7,,,,4b/5b,,,,{2},
{16}3h[8:1]/4h[8:1],,,2h[8:1]/5h[8:1],,,1/6,,1/6,,Cc,,
{16}3,4,3,6,5,6,3,4,2,6,5,7,
{16}1h[4:1],,8,,8,,8,,1,,1,,1-5[63#24:1],,
{16}7,8,6,1,5,2,4,3,,,
{16}1b/6b<1[63#24:1],,,,{24}E7f/B7,B6,B5,E5,,,{16}3b/4bx,,,,2/6,,3,,
{16}4/8xV24[63#24:1],,,,5x,,5h[8:1],,6,,6h[8:1],,8bV64[63#24:1],,,,
{16}3x,,3h[8:1],,2,,2h[8:1],,8b,,,,1-6[63#24:1],,,,
{16}2/4,,,,4/6,,3h[8:1],,1b,,,,4/5,,3/6,,2V86[63#24:1]/7,,,,3,4,3,,
{16}6,5,6,,2b/4<5-7[63#24:1],,,,
{16}4>3-1[63#24:1]*>3-1[63#24:1],,3,5,
{16}4z8b[63#12:1]*s8b[63#12:1],,,,4b,,,,4b,,,,
{16}4b,,,,,,,,{24}8b,1/7,2/6,3/5,4,,{16}6,5,6,,
{16}4b/7b-1[63#24:1],,,,3,3,5,,6,6,4,,2b-6[63#24:1]/7b,,,,
{16}6,5,6,,4,5,3,,2b/8b,,,,5h[8:1]/7h[8:1],,,,
{2}Ch[2:3]c,
{64},,,,,,,,,,,,,,,,,,,,,,,,,,,,,,,,
{4},,,8?-4[94.5#4:1],{1},
{24}1b,2,3,4h[8:1],,,,,,2b,3,4,5h[8:1],,,,,,3b,4,5,6h[8:1],,,
{16}7,1,8,2,1,,2h[8:1],,
{24}8b,7,6,5h[8:1],,,,,,7b,6,5,4h[8:1],,,,,,6b,5,4,3h[8:1],,,
{16},2h[8:1]/4h[8:1],,,1/5,,,,
{16}7/8-4[63#24:1],,,,6,,5/6,,,,8,,1/8,,1,2,3b,,4,4,2b,,5,5,7b,,,1b/8b,,,2b/7b,,
{16}Ch[8:1]c,,,,{24}6b,5,6,5,7,,3b,4,3,4,2,,1b/8b,,,,,,
{16}1-5[63#24:1]/8,,,,2,4,3,,7,5,6,,1V75[63#24:1],,,,
{16}7-3[63#24:1],,4,4,5,,2,4,1,,,,7,,,,
{16}2b/4b,,,,{32}1/5,2/6,3/7,4h[8:1]/8h[8:1],,,,,
{32}3/7,2/6,1h[32:5]/5h[32:5],,,,,,2/6,3/7,4/8,1/5,,,,,
{16}4bx/8bx,,7,,6,,1b/5b,,2,,3,,4b/7b,,,,2b/5b,,,,1,8,1,8,
{24}1b,2,3/8b,7,6/2b,3,4/7b,6,5/1b,2,3/8b,7,6/2b,3,4/7b,6,5/1b,2,
{48}3/E8f,B7,E7,B6,E6,B5,E5,B4,E4,B3,E3,B2,
{32}E2,B1,E1,B8,E8,B7,E7,B6,
{16}E6,B5,E5,B4,E4c,B3c,E3c,B2c,
{8}E2c,B1c,E1c,B8c,E8c,,{2}Cc,
{8}2>5[63#8:1]/6,,,,,,B6/B7,,,,6,6,
{8}5<1[63#6:1]/7h[8:3],,,4h[4:1],,,2/5,,3,,
{32}4bh[4:1]c/8!-3c[0##0]m*!-5c[0##0]m,,
{32}8!V24c[0##0]m*!V64c[0##0]m,,
{32}8!q4c[0##0]m*!p4c[0##0]m,,
{32}8!<4c[0##0]m*!>4c[0##0]m,,
{8}8-4[63#6:1],,,,,,B3/B2,,,,3,3,4-2p6[63#6:1]c/2h[8:3],,,5h[4:1],,,
{8}5/4,,6,,7,,
{16}5b/8bqq4[63#24:3],,,,,,3/4-6<1[63#24:3],,,,,,2h[8:3]/8,,,,
{16},,,,2,,3,,4>1[63#12:1],,,,,,5/6,,7-3[63#12:1],,,,4b,,,,6,,,,7,,,,
{4}Chf[4:3]c,,,,
{4},
{16}3/4,,2,,5<8[63#12:1],,,,,,3/4,,,,,,2/5,,,,3,,,,4/8,,,,
{4}8bh[1:6]/4b,,,5,,,
{8}6,,,7,,,1,,,2,,,
{4}3,4,5,6,7,1,
{16}2,,,3,,,4,,,5,,,6,,,7,,,1,,,2,,,
{8}3,4,5,6,7,8,
{32}1,,,2,,,3,,,4,,,5,,,6,,,7,,,8,,,
{12}1,2,3,4,5,6,
{16}7,8,1,2,3,4,5,6,
{24}7,8,1,2,3,4,5,6,7,8,1,2,
{32}3/6b,5,4,3,2,1,8,7,6,5,4,3,2,1,8,7,
{32}6,5,4,3,2,1,8,7,6,5,4,3,2,1,8,7,6,5,4,3,2,1,8,7,6,5,4,3,2,1,8,7,
{4}2b-6[63#12:1]c/6bc/Cfmc,,,Cc,
{8},
{8}8h[4:1],,,2h[4:1]/Ch[4:5]c,,,3h[8:7],,,E7,,E8,,E1,,
{8}7h[4:1]/Ch[4:5]c,,,6h[8:7],,,E3,,E2,,E1,,
{8}2h[4:1]/Ch[4:5]c,,,3h[8:7],,,E7/B6,,E8/B7,,E1/B8,,
{8}7h[4:1]/Ch[4:5]c,,,6h[8:7],,,E3/B3,,E2/B2,,E1/B1,,
{8}1/5,,2h[1:1],Ch[8:7]c,,,B3/E4,,B7/B6,,B2/E2,,
{8}8/4,,7h[1:1],Ch[8:7]c,,,B6/E6,,B2/B3,,B7/E8,,
{8}1/5,,2h[2:1],Ch[8:7]c,,,B3/E4,,B7/B6/1h[2:1],,B2/B3,,
{16}8,,8,,1,,1,,{24}8b,1,2,3,4,5,{16}6>3[63#24:1]/1b,,,,
{16}3b/B8/B7/Cf,,,,7b/B3/B4/Cf,,,,
{8}2b/6b,1,{16}3,4,2h[8:1],,
{16}7,5,6h[8:1],,1-5[63#24:1],,4,2,2-4[63#24:1]*-4[63#24:1],,6,7,8-6b[63#24:1],,,,
{4}1b,2b,8b,2/5,{24}3,4,3,4,3,4,{16}2b-6[63#24:1],,,,1/8-4b[63#24:1],,7,5,6,,3/4,,
{16}1/2,,,,8,,,,1h[8:1],,,,{32}1/4,2/5,3/6,4/7,5/8,,,,
{16}4b/7b,,2,1,2,,8h[4:1],,{32}1,2,3,4,,,,,{16}5b/7,,,,2/4b,,,,1b/8,,,,
{32}1b>8[63#6:4]c/8b<1[63#6:4]c,2bc/7bc,3bc/6bc,4bc/5bc,,,,,{4},{1},,{2},
{16}4b,5,4,5,
{16}3b,6,3,6,
{16}2b,7,2,7,
{16}1b,8,1,8,
{16}1b,8,2b,7,1b,8,2b,7,
{4}1bh[2:3],,,,,,6h[4:3],,5,5h[4:3],,4,4h[4:3],,3,3h[4:3],,
{4}4,5h[4:3],,3,4h[4:3],,5,6h[4:3],,4,5h[4:3],,,
{4}6h[4:3],,5,5h[4:3],,4,4h[4:3],,3,3h[4:3],,
{4}4,5h[4:3],,3,4h[4:3],,5,6h[4:3],,4,5h[4:5],,,,,
{1},
E
